One.Piece.Stampede.1080p.x264 Full Torrent Magnet Download

Download Torrent One.Piece.Stampede.1080p.x264 Movie Full in HD Result. Movie One.Piece.Stampede.1080p.x264 Torrent Download full. Movie One.Piece.Stampede.1080p.x264 torrent Magnet Download Full. One.Piece.Stampede.1080p.x264 Full Movie Torrent Download And Magnet Download For your PC And Mobiles. Latest Movie One.Piece.Stampede.1080p.x264 Download Link In Bottom.

Torrent And Magnet Links Below

[INFO]

Titolo originale ワンピーススタンピード

Lingua originale giapponese

Paese di produzione Giappone

Anno 2019

Durata 101 min

Rapporto 16:9

Genere animazione, azione, avventura, fantastico

Regia Takashi Ōtsuka

Sceneggiatura Atsuhiro Tomioka, Takashi Ōtsuka

Produttore esecutivo Eiichirō Oda

Casa di produzione Toei Animation, Fuji TV, Toei Company, Shūeisha, Bandai

Distribuzione in italiano Koch Media

Fotografia Naoyuki Wada

Musiche Kohei Tanaka

Art director Kazuo Ogura

Character design Masayuki Sato

Animatori Masayuki Sato

[TRAMA]

Un flashback del passato mostra Barbanera che cerca nuovi membri per la sua ciurma al sesto livello di Impel Down. Qui un detenuto, Douglas Bullet, uccide i suoi compagni di cella, ma Teach rifiuta di farlo entrare nel suo equipaggio ritenendolo troppo pericoloso, così Bullet fugge da solo.

Nel presente, la ciurma di Cappello di paglia giunge a Delta per partecipare all’Expo pirata organizzata da Buena Vista, consistente nel recuperare un tesoro di Roger, lasciato su un’isola che emerge grazie a una Knock Up Stream. I vari equipaggi risalgono la corrente e la Thousand Sunny si posiziona in testa alla gara. Nel frattempo, Law emerge dai vicoli dell’Expo pirata con diverse ferite dopo avere scoperto che Buena Festa sta tramando qualcosa. Bagy il clown, in ritardo all’evento, lo nota e lo attacca, ma il chirurgo utilizza i suoi poteri per salire sulla Sunny. Avvisa così i Pirati di Cappello di paglia, che si dividono in due gruppi: mentre gli altri continuano la gara, Chopper, Robin, Brook e Sanji accompagnano Law a scoprire i segreti dell’evento.

Raggiunta l’isola, i vari equipaggi iniziano a combattere per impossessarsi per primi del tesoro, ma Bagy li procede e nota un Eternal Pose per Raftel chiuso in uno scrigno. Bullet rilascia una nave piena di esplosivi per fare precipitare l’isola, così Bagy perde lo scrigno, che viene recuperato da Usop. Il resto della ciurma e Law raggiungono il covo di Festa, dove Robin e Brook lo sentono parlare di un imminente Buster Call. Provano ad avvisare i loro compagni, ma si imbattono in Smoker, anche lui lì per indagare. Quest’ultimo cattura la renna e lo scheletro, mentre Sanji lo affronta per permettere all’archeologa e a Law di allontanarsi. Durante la loro fuga, incontrano Crocodile, che ammette di essere interessato al tesoro di Roger.

Bullet malmena Usop per impossessarsi dello scrigno e i membri della peggiore generazione decidono di affrontarlo, ad eccezione di Zoro, che si prepara a fronteggiare la Marina con l’aiuto dei Pirati splendidi e dei Pirati Barto club. Grazie al loro gioco di squadra, Rufy riesce a colpire Bullet ma il nemico si rialza e trasforma il suo sottomarino in un grande robot. Usop spara alcuni semi contro quest’ultimo apparentemente inefficaci, venendo deriso per la sua debolezza. Bullet sconfigge poi tutti i suoi avversari.

La flotta che effettuerà il Buster Call arriva a Delta e i marine affrontano i pirati, mentre Zoro combatte con l’ammiraglio Issho. Nel frattempo, Smoker smette di combattere dopo essere stato informato da Tashigi dell’operazione e la raggiunge, riunendosi anche a Hina, Kobi e Hermeppo. Bullet estende i suoi poteri sull’isola e forma un colosso metallico, Buena Festa invece contatta Morgans, che lo mette in comunicazione con gli altri signori della malavita.

A Delta giungono anche Mihawk Occhi di Falco, accompagnato da Perona, e Boa Hancock, intenzionata ad assicurarsi che Rufy stia bene. Mentre gli scontri imperversano, Borsalino chiede un secondo Buster Call, ricevendo l’ordine da Sakazuki di eliminare Bullet a ogni costo, incluso quello di sacrificare i marine presenti sull’isola. Intanto Smoker incontra per caso Bagy, che costretto rivela che il tesoro è un Eternal Pose per Raftel. Il marine decide così di recuperarlo e ordina ai suoi compagni di allontanarsi, lanciandosi contro Bullet, ma Sabo lo ferma e lo affronta in un breve scontro. Vedendo Bullet, Bagy lo riconosce e terrificato rivela che il nemico era stato anche lui nella ciurma dei Pirati Roger.

Anche Rob Lucci giunge sull’isola per requisire l’Eternal Pose. Usop invece trasporta Rufy e in suo soccorso giungono Brook e Chopper, che cura il suo capitano. Dopo essersi ripreso, Rufy si scaglia contro il colosso di Bullet e accetta di collaborare con Law, Hancock, Sabo, Smoker, Lucci, Crocodile e Bagy per abbatterlo. Il gruppo lancia poi un attacco combinato contro il lato sinistro del colosso, che Rufy distrugge con il Gear Fourth. Le piante precedentemente lanciate da Usop distruggono anche il robot di Bullet, permettendo cosi a Rufy di sconfiggerlo. Rufy poi distrugge l’Eternal Pose per Raftel non volendo scorciatoie.

Dopodiché Sabo raggiunge Buena Festa e ha facilmente la meglio. I pirati presenti sull’isola salpano, ma Borsalino li attacca. Sabo allora alza un muro di fuoco per fermare le corazzate della Marina e consentire ai pirati di fuggire. Il film si conclude con un flashback di Roger, che getta in mare l’Eternal Pose per Raftel affermando di non averne bisogno.

[SCREENSHOT]

[REPORT]

Code:

Video

ID                                       : 1

Format                                   : AVC

Format/Info                              : Advanced Video Codec

Format profile                           : [email protected]
Format settings                          : CABAC / 6 Ref Frames

Format settings, CABAC                   : Yes

Format settings, Reference frames        : 6 frames

Codec ID                                 : avc1

Codec ID/Info                            : Advanced Video Coding

Duration                                 : 1 h 41 min

Bit rate                                 : 6 318 kb/s

Width                                    : 1 920 pixels

Height                                   : 1 080 pixels

Display aspect ratio                     : 16:9

Frame rate mode                          : Constant

Frame rate                               : 23.976 (24000/1001) FPS

Color space                              : YUV

Chroma subsampling                       : 4:2:0

Bit depth                                : 8 bits

Scan type                                : Progressive

Bits/(Pixel*Frame)                       : 0.127

Stream size                              : 4.46 GiB (89%)

Title                                    : by stress

Writing library                          : x264 core 148 r2795 aaa9aa8

Encoding settings                        : cabac=1 / ref=6 / deblock=1:1:1 / analyse=0x3:0x113 / me=hex / subme=7 / psy=1 / psy_rd=0.40:0.00 / mixed_ref=1 / me_range=16 / chroma_me=1 / trellis=1 / 8x8dct=1 / cqm=0 / deadzone=21,11 / fast_pskip=1 / chroma_qp_offset=-2 / threads=12 / lookahead_threads=2 / sliced_threads=0 / nr=0 / decimate=1 / interlaced=0 / bluray_compat=0 / constrained_intra=0 / bframes=5 / b_pyramid=2 / b_adapt=1 / b_bias=0 / direct=1 / weightb=1 / open_gop=0 / weightp=2 / keyint=250 / keyint_min=23 / scenecut=40 / intra_refresh=0 / rc_lookahead=40 / rc=crf / mbtree=1 / crf=17.0 / qcomp=0.60 / qpmin=0 / qpmax=69 / qpstep=4 / ip_ratio=1.40 / aq=1:0.60

Language                                 : Japanese

Menus                                    : 6

Codec configuration box                  : avcC

Audio #1

ID                                       : 2

Format                                   : AAC LC

Format/Info                              : Advanced Audio Codec Low Complexity

Codec ID                                 : mp4a-40-2

Duration                                 : 1 h 41 min

Bit rate mode                            : Constant

Bit rate                                 : 197 kb/s

Channel(s)                               : 6 channels

Channel layout                           : C L R Ls Rs LFE

Sampling rate                            : 48.0 kHz

Frame rate                               : 46.875 FPS (1024 SPF)

Compression mode                         : Lossy

Stream size                              : 143 MiB (3%)

Title                                    : Italiano (Cinema)

Language                                 : Italian

Default                                  : Yes

Alternate group                          : 1

Menus                                    : 6

Audio #2

ID                                       : 3

Format                                   : AAC LC

Format/Info                              : Advanced Audio Codec Low Complexity

Codec ID                                 : mp4a-40-2

Duration                                 : 1 h 41 min

Bit rate mode                            : Constant

Bit rate                                 : 197 kb/s

Channel(s)                               : 6 channels

Channel layout                           : C L R Ls Rs LFE

Sampling rate                            : 48.0 kHz

Frame rate                               : 46.875 FPS (1024 SPF)

Compression mode                         : Lossy

Stream size                              : 143 MiB (3%)

Title                                    : Italiano (Home Video)

Language                                 : Italian

Default                                  : No

Alternate group                          : 1

Menus                                    : 6

Audio #3

ID                                       : 4

Format                                   : AAC LC

Format/Info                              : Advanced Audio Codec Low Complexity

Codec ID                                 : mp4a-40-2

Duration                                 : 1 h 41 min

Bit rate mode                            : Constant

Bit rate                                 : 197 kb/s

Channel(s)                               : 6 channels

Channel layout                           : C L R Ls Rs LFE

Sampling rate                            : 48.0 kHz

Frame rate                               : 46.875 FPS (1024 SPF)

Compression mode                         : Lossy

Stream size                              : 142 MiB (3%)

Title                                    : 日本語

Language                                 : Japanese

Default                                  : No

Alternate group                          : 1

Menus                                    : 6

Audio #4

ID                                       : 5

Format                                   : AAC LC

Format/Info                              : Advanced Audio Codec Low Complexity

Codec ID                                 : mp4a-40-2

Duration                                 : 1 h 41 min

Bit rate mode                            : Constant

Bit rate                                 : 197 kb/s

Channel(s)                               : 6 channels

Channel layout                           : C L R Ls Rs LFE

Sampling rate                            : 48.0 kHz

Frame rate                               : 46.875 FPS (1024 SPF)

Compression mode                         : Lossy

Stream size                              : 143 MiB (3%)

Title                                    : English

Language                                 : English

Default                                  : No

Alternate group                          : 1

Menus                                    : 6

Menu #1

ID                                       : 6

Codec ID                                 : text

Duration                                 : 1 h 41 min

Language                                 : English

Bit rate mode                            : CBR

Menu For                                 : 1,2,3,4,5

00:00:00.000                             : Chapter 01

00:00:19.000                             : Chapter 02

00:02:47.520                             : Chapter 03

00:04:36.520                             : Chapter 04

00:06:05.060                             : Chapter 05

01:04:18.220                             : Chapter 06

01:06:25.310                             : Chapter 07

01:36:17.970                             : Chapter 08

01:39:24.890                             : Chapter 09

Bit rate mode                            : Constant

Menu #2

00:00:00.000                             : Chapter 01

00:00:19.000                             : Chapter 02

00:02:47.520                             : Chapter 03

00:04:36.520                             : Chapter 04

00:06:05.060                             : Chapter 05

01:04:18.220                             : Chapter 06

01:06:25.310                             : Chapter 07

01:36:17.970                             : Chapter 08

01:39:24.890                             : Chapter 09

One.Piece.Stampede.1080p.x264Download Torrent Magnet

#OnePieceStampede1080px264