One.Night.in.Bangkok.2020.HDR Full Torrent Magnet Download

Download Torrent One.Night.in.Bangkok.2020.HDR Movie Full in HD Result. Movie One.Night.in.Bangkok.2020.HDR Torrent Download full. Movie One.Night.in.Bangkok.2020.HDR torrent Magnet Download Full. One.Night.in.Bangkok.2020.HDR Full Movie Torrent Download And Magnet Download For your PC And Mobiles. Latest Movie One.Night.in.Bangkok.2020.HDR Download Link In Bottom.

Torrent And Magnet Links Below

Quote:

*************************************************************

******************************Thumbnbil:*********************

******************************Screenshots:********************

screenshot 1

screenshot 2

screenshot 3

screenshot 4

screenshot 5

screenshot 6

screenshot 7

screenshot 8

screenshot 9

screenshot 0

******************************************************

18+.One.Night.in.Bangkok.2020.HDRip.XviD.AC3.With.Sample.LLG.mp4

Format : MPEG-4

Format profile : Base Media

Codec ID : isom (isom/iso2/avc1/mp41)

File size : 1.15 GiB

Duration : 1 h 44 min

Overall bit rate mode : Variable

Overall bit rate : 1 578 kb/s

Writing application : Lavf57.83.100

Video

ID : 1

Format : AVC

Format/Info : Advanced Video Codec

Format profile : [email protected]
Format settings : CABAC / 1 Ref Frames

Format settings, CABAC : Yes

Format settings, Reference frames : 1 frame

Codec ID : avc1

Codec ID/Info : Advanced Video Coding

Duration : 1 h 44 min

Bit rate mode : Variable

Bit rate : 1 190 kb/s

Maximum bit rate : 3 600 kb/s

Width : 720 pixels

Height : 300 pixels

Display aspect ratio : 2.40:1

Frame rate mode : Constant

Frame rate : 23.976 (23976/1000) FPS

Color space : YUV

Chroma subsampling : 4:2:0

Bit depth : 8 bits

Scan type : Progressive

Bits/(Pixel*Frame) : 0.230

Stream size : 892 MiB (75%)

Language : English

Codec configuration box : avcC

Audio

ID : 2

Format : AC-3

Format/Info : Audio Coding 3

Commercial name : Dolby Digital

Codec ID : ac-3

Duration : 1 h 44 min

Bit rate mode : Constant

Bit rate : 384 kb/s

Channel(s) : 6 channels

Channel layout : L R C LFE Ls Rs

Sampling rate : 48.0 kHz

Frame rate : 31.250 FPS (1536 SPF)

Compression mode : Lossy

Stream size : 288 MiB (24%)

Language : English

Service kind : Complete Main

Default : Yes

Alternate group : 1

********************************************************

One.Night.in.Bangkok.2020.HDRDownload Torrent Magnet

#OneNightinBangkok2020HDR