One.and.the.Same.2021.HDRip.X Full Torrent Magnet Download

Download Torrent One.and.the.Same.2021.HDRip.X Movie Full in HD Result. Movie One.and.the.Same.2021.HDRip.X Torrent Download full. Movie One.and.the.Same.2021.HDRip.X torrent Magnet Download Full. One.and.the.Same.2021.HDRip.X Full Movie Torrent Download And Magnet Download For your PC And Mobiles. Latest Movie One.and.the.Same.2021.HDRip.X Download Link In Bottom.

Torrent And Magnet Links Below

Quote:

*****************************************************************

*******************SCREENSHOTS(Click to enlarge)*******************

*******************************MEDIAINFO****************************

One.and.the.Same.2021.HDRip.XviD.AC3.LLG.mp4

Format : MPEG-4

Format profile : Base Media

Codec ID : isom (isom/iso2/avc1/mp41)

File size : 1.21 GiB

Duration : 1 h 50 min

Overall bit rate mode : Variable

Overall bit rate : 1 571 kb/s

Video

ID : 1

Format : AVC

Format/Info : Advanced Video Codec

Format profile : [email protected]
Format settings : CABAC / 1 Ref Frames

Format settings, CABAC : Yes

Format settings, Reference frames : 1 frame

Codec ID : avc1

Codec ID/Info : Advanced Video Coding

Duration : 1 h 50 min

Bit rate mode : Variable

Bit rate : 1 184 kb/s

Maximum bit rate : 1 200 kb/s

Width : 720 pixels

Height : 360 pixels

Display aspect ratio : 2.008

Frame rate mode : Constant

Frame rate : 23.976 (23976/1000) FPS

Color space : YUV

Chroma subsampling : 4:2:0

Bit depth : 8 bits

Scan type : Progressive

Bits/(Pixel*Frame) : 0.191

Stream size : 936 MiB (75%)

Language : English

Audio

ID : 2

Format : AC-3

Format/Info : Audio Coding 3

Commercial name : Dolby Digital

Codec ID : ac-3

Duration : 1 h 50 min

Bit rate mode : Constant

Bit rate : 384 kb/s

Channel(s) : 6 channels

Channel layout : L R C LFE Ls Rs

Sampling rate : 48.0 kHz

Frame rate : 31.250 FPS (1536 SPF)

Compression mode : Lossy

Stream size : 304 MiB (24%)

Language : English

Service kind : Complete Main

Default : Yes

Alternate group : 1

********************************************************

One.and.the.Same.2021.HDRip.XDownload Torrent Magnet

#OneandtheSame2021HDRipX