Occupation.Rainfall.2021.BRRi Full Torrent Magnet Download

Download Torrent Occupation.Rainfall.2021.BRRi Movie Full in HD Result. Movie Occupation.Rainfall.2021.BRRi Torrent Download full. Movie Occupation.Rainfall.2021.BRRi torrent Magnet Download Full. Occupation.Rainfall.2021.BRRi Full Movie Torrent Download And Magnet Download For your PC And Mobiles. Latest Movie Occupation.Rainfall.2021.BRRi Download Link In Bottom.

Torrent And Magnet Links Below

Occupation.Rainfall.2021.BRRip.XviD.B4ND1T69

Director: Luke Sparke

Writers: Luke Sparke, Dale Dye (additional dialogue) (as Dale Dye USMC)

Stars: Dan Ewing, Temuera Morrison, Daniel Gillies

Plot/Story:

Two years after aliens land on Earth, survivors from Sydney, Australia, fight in a desperate war as the number of casualties continue to grow.

General

Complete name : Occupation.Rainfall.2021.BRRip.XviD.B4ND1T69.avi

Format : AVI

Format/Info : Audio Video Interleave

File size : 1.27 GiB

Duration : 2 h 8 min

Overall bit rate : 1 419 kb/s

Subtitles : Yes…Included

Video

ID : 0

Format : MPEG-4 Visual

Format profile : Advanced [email protected]
Format settings, BVOP : 2

Format settings, QPel : No

Format settings, GMC : No warppoints

Format settings, Matrix : Default (H.263)

Codec ID : XVID

Codec ID/Hint : XviD

Duration : 2 h 8 min

Bit rate : 1 278 kb/s

Width : 720 pixels

Height : 304 pixels

Display aspect ratio : 2.35:1

Frame rate : 23.976 (24000/1001) FPS

Color space : YUV

Chroma subsampling : 4:2:0

Bit depth : 8 bits

Scan type : Progressive

Compression mode : Lossy

Bits/(Pixel*Frame) : 0.244

Stream size : 1.15 GiB (90%)

Writing library : XviD 64

Audio

ID : 1

Format : MPEG Audio

Format version : Version 1

Format profile : Layer 3

Codec ID : 55

Codec ID/Hint : MP3

Duration : 2 h 8 min

Bit rate mode : Constant

Bit rate : 128 kb/s

Channel(s) : 2 channels

Sampling rate : 48.0 kHz

Compression mode : Lossy

Stream size : 117 MiB (9%)

Alignment : Aligned on interleaves

Interleave, duration : 24 ms (0.58 video frame)

Screenshots:









Please Seed For As Long As Possible

Or At Least 1:1 Ratio…Thanks

Enjoy Peeps

Occupation.Rainfall.2021.BRRiDownload Torrent Magnet

#OccupationRainfall2021BRRi