Nymphomaniac.Vol..II.2013.BDR Full Torrent Magnet Download

Download Torrent Nymphomaniac.Vol..II.2013.BDR Movie Full in HD Result. Movie Nymphomaniac.Vol..II.2013.BDR Torrent Download full. Movie Nymphomaniac.Vol..II.2013.BDR torrent Magnet Download Full. Nymphomaniac.Vol..II.2013.BDR Full Movie Torrent Download And Magnet Download For your PC And Mobiles. Latest Movie Nymphomaniac.Vol..II.2013.BDR Download Link In Bottom.

Torrent And Magnet Links Below

Quote:

*****************************************************************

*******************SCREENSHOTS(Click to enlarge)*******************

*******************************MEDIAINFO****************************

18+.Nymphomaniac.Vol..II.2013.BDRip.XviD.AC3.With.Sample.LLG.mp4

Format : MPEG-4

Format profile : Base Media

Codec ID : isom (isom/iso2/avc1/mp41)

File size : 1.21 GiB

Duration : 2 h 58 min

Overall bit rate mode : Variable

Overall bit rate : 969 kb/s

Writing application : Lavf57.83.100

Video

ID : 1

Format : AVC

Format/Info : Advanced Video Codec

Format profile : [email protected]
Format settings : CABAC / 1 Ref Frames

Format settings, CABAC : Yes

Format settings, Reference frames : 1 frame

Codec ID : avc1

Codec ID/Info : Advanced Video Coding

Duration : 2 h 58 min

Bit rate mode : Variable

Bit rate : 773 kb/s

Maximum bit rate : 2 304 kb/s

Width : 706 pixels

Height : 300 pixels

Display aspect ratio : 2.35:1

Frame rate mode : Constant

Frame rate : 24.000 FPS

Color space : YUV

Chroma subsampling : 4:2:0

Bit depth : 8 bits

Scan type : Progressive

Bits/(Pixel*Frame) : 0.152

Stream size : 985 MiB (80%)

Codec configuration box : avcC

Audio

ID : 2

Format : AC-3

Format/Info : Audio Coding 3

Commercial name : Dolby Digital

Codec ID : ac-3

Duration : 2 h 58 min

Bit rate mode : Constant

Bit rate : 192 kb/s

Channel(s) : 2 channels

Channel layout : L R

Sampling rate : 48.0 kHz

Frame rate : 31.250 FPS (1536 SPF)

Compression mode : Lossy

Stream size : 245 MiB (20%)

Language : English

Service kind : Complete Main

Default : Yes

Alternate group : 1

********************************************************

Nymphomaniac.Vol..II.2013.BDRDownload Torrent Magnet

#NymphomaniacVolII2013BDR