Nymphomaniac.Vol..II.2013.108 Full Torrent Magnet Download

Download Torrent Nymphomaniac.Vol..II.2013.108 Movie Full in HD Result. Movie Nymphomaniac.Vol..II.2013.108 Torrent Download full. Movie Nymphomaniac.Vol..II.2013.108 torrent Magnet Download Full. Nymphomaniac.Vol..II.2013.108 Full Movie Torrent Download And Magnet Download For your PC And Mobiles. Latest Movie Nymphomaniac.Vol..II.2013.108 Download Link In Bottom.

Torrent And Magnet Links Below

Quote:

*****************************************************************

*******************SCREENSHOTS(Click to enlarge)*******************

*******************************MEDIAINFO****************************

18+.Nymphomaniac.Vol..II.2013.1080p.BluRay.x264.With.Sample.LLG.mp4

Format : MPEG-4

Format profile : Base Media

Codec ID : isom (isom/iso2/avc1/mp41)

File size : 1.68 GiB

Duration : 2 h 58 min

Overall bit rate mode : Variable

Overall bit rate : 1 351 kb/s

Writing application : Lavf57.83.100

Video

ID : 1

Format : AVC

Format/Info : Advanced Video Codec

Format profile : [email protected]
Format settings : CABAC / 1 Ref Frames

Format settings, CABAC : Yes

Format settings, Reference frames : 1 frame

Codec ID : avc1

Codec ID/Info : Advanced Video Coding

Duration : 2 h 58 min

Bit rate mode : Variable

Bit rate : 1 251 kb/s

Maximum bit rate : 3 600 kb/s

Width : 1 920 pixels

Height : 816 pixels

Display aspect ratio : 2.35:1

Frame rate mode : Constant

Frame rate : 24.000 FPS

Color space : YUV

Chroma subsampling : 4:2:0

Bit depth : 8 bits

Scan type : Progressive

Bits/(Pixel*Frame) : 0.033

Stream size : 1.56 GiB (93%)

Codec configuration box : avcC

Audio

ID : 2

Format : AAC LC

Codec ID : mp4a-40-2

Duration : 2 h 58 min

Bit rate mode : Constant

Bit rate : 96.0 kb/s

Channel(s) : 2 channels

Channel layout : L R

Sampling rate : 48.0 kHz

Frame rate : 46.875 FPS (1024 SPF)

Compression mode : Lossy

Stream size : 122 MiB (7%)

Language : English

Default : Yes

Alternate group : 1

********************************************************

Nymphomaniac.Vol..II.2013.108Download Torrent Magnet

#NymphomaniacVolII2013108