NTT Indycar Series 2021Texas Full Torrent Magnet Download

Download Torrent NTT Indycar Series 2021Texas Movie Full in HD Result. Movie NTT Indycar Series 2021Texas Torrent Download full. Movie NTT Indycar Series 2021Texas torrent Magnet Download Full. NTT Indycar Series 2021Texas Full Movie Torrent Download And Magnet Download For your PC And Mobiles. Latest Movie NTT Indycar Series 2021Texas Download Link In Bottom.

Torrent And Magnet Links Below

NTT IndyCar Series 2021

XPEL 375 Race 2

Texas Motor Speedway

May 02 5:00 PM ET

NBCSN






General

Complete name : NTT Indycar Series 2021 Texas XPEL 375 Race 2 HDTV x264 720.mkv

Format : Matroska

Format version : Version 4

File size : 2.95 GiB

Duration : 2 h 0 min

Overall bit rate : 3 503 kb/s

Encoded date : UTC 2021-05-02 23:57:10

Writing application : mkvmerge v49.0.0 (‘Sick Of Losing Soulmates’) 64-bit

Writing library : libebml v1.4.0 + libmatroska v1.6.1

Encoding Gui : Hybrid 2020.08.02.1

Video

ID : 1

Format : AVC

Format/Info : Advanced Video Codec

Format profile : [email protected]
Format settings : CABAC / 4 Ref Frames

Format settings, CABAC : Yes

Format settings, Reference frames : 4 frames

Codec ID : V_MPEG4/ISO/AVC

Duration : 2 h 0 min

Bit rate : 3 115 kb/s

Width : 1 280 pixels

Height : 720 pixels

Display aspect ratio : 16:9

Frame rate mode : Variable

Frame rate : 56.571 FPS

Original frame rate : 59.940 (60000/1001) FPS

Color space : YUV

Chroma subsampling : 4:2:0

Bit depth : 8 bits

Scan type : Progressive

Bits/(Pixel*Frame) : 0.060

Stream size : 2.62 GiB (89%)

Writing library : x264 core 161 r3018 db0d417

Default : Yes

Forced : Yes

Color range : Limited

Matrix coefficients : BT.709

Audio

ID : 2

Format : AC-3

Format/Info : Audio Coding 3

Commercial name : Dolby Digital

Codec ID : A_AC3

Duration : 2 h 0 min

Bit rate mode : Constant

Bit rate : 384 kb/s

Channel(s) : 6 channels

Channel layout : L R C LFE Ls Rs

Sampling rate : 48.0 kHz

Frame rate : 31.250 FPS (1536 SPF)

Compression mode : Lossy

Stream size : 331 MiB (11%)

Service kind : Complete Main

Default : Yes

Forced : No

NTT Indycar Series 2021Texas Download Torrent Magnet

#NTT #Indycar #Series #2021Texas