Notturno.2020.1080p.WEB-DL.x2 Full Torrent Magnet Download

Download Torrent Notturno.2020.1080p.WEB-DL.x2 Movie Full in HD Result. Movie Notturno.2020.1080p.WEB-DL.x2 Torrent Download full. Movie Notturno.2020.1080p.WEB-DL.x2 torrent Magnet Download Full. Notturno.2020.1080p.WEB-DL.x2 Full Movie Torrent Download And Magnet Download For your PC And Mobiles. Latest Movie Notturno.2020.1080p.WEB-DL.x2 Download Link In Bottom.

Torrent And Magnet Links Below

Release: Notturno.2020.1080p.WEB-DL.x264.AC3.HORiZON-ArtSubs

IMDB: https://www.imdb.com/title/tt7945450

Subtitles: English, Spanish and Turkish (soft)

Plot: Gianfranco Rosi’s new documentary is an immersive portrait of those trying to survive in the war-torn Middle East. Official submission of Italy for the ‘Best International Feature Film’ category of the 93rd Academy Awards in 2021.

General

Complete name : Notturno.2020.1080p.WEB-DL.x264.AC3.HORiZON-ArtSubs.mkv

Format : Matroska

Format version : Version 4

File size : 2.61 GiB

Duration : 1 h 40 min

Overall bit rate : 3 719 kb/s

Encoded date : UTC 2021-03-08 00:21:00

Writing application : mkvmerge v52.0.0 (‘Secret For The Mad’) 64-bit

Writing library : libebml v1.4.1 + libmatroska v1.6.2

Video

ID : 1

Format : AVC

Format/Info : Advanced Video Codec

Format profile : [email protected]
Format settings : CABAC / 4 Ref Frames

Format settings, CABAC : Yes

Format settings, Reference : 4 frames

Codec ID : V_MPEG4/ISO/AVC

Duration : 1 h 40 min

Bit rate : 3 400 kb/s

Width : 1 920 pixels

Height : 1 040 pixels

Display aspect ratio : 1.85:1

Frame rate mode : Constant

Frame rate : 25.000 FPS

Color space : YUV

Chroma subsampling : 4:2:0

Bit depth : 8 bits

Scan type : Progressive

Bits/(Pixel*Frame) : 0.068

Stream size : 2.38 GiB (91%)

Writing library : x264 core 157 r2935 545de2f

Encoding settings : cabac=1 / ref=4 / deblock=1:-2:-2 / analyse=0x3:0x133 / me=umh / subme=9 / psy=1 / psy_rd=1.00:0.25 / mixed_ref=1 / me_range=32 / chroma_me=1 / trellis=2 / 8x8dct=1 / cqm=0 / deadzone=6,6 / fast_pskip=1 / chroma_qp_offset=-4 / threads=6 / lookahead_threads=1 / sliced_threads=0 / nr=0 / decimate=0 / interlaced=0 / bluray_compat=0 / constrained_intra=0 / bframes=3 / b_pyramid=2 / b_adapt=2 / b_bias=0 / direct=3 / weightb=1 / open_gop=0 / weightp=2 / keyint=250 / keyint_min=25 / scenecut=40 / intra_refresh=0 / rc_lookahead=60 / rc=2pass / mbtree=1 / bitrate=3400 / ratetol=1.0 / qcomp=0.75 / qpmin=0 / qpmax=69 / qpstep=4 / cplxblur=20.0 / qblur=0.5 / vbv_maxrate=25000 / vbv_bufsize=78125 / nal_hrd=none / filler=0 / ip_ratio=1.10 / aq=3:1.20

Default : Yes

Forced : No

Color range : Limited

Color primaries : BT.709

Transfer characteristics : BT.709

Matrix coefficients : BT.709

Audio

ID : 2

Format : AC-3

Format/Info : Audio Coding 3

Commercial name : Dolby Digital

Codec ID : A_AC3

Duration : 1 h 40 min

Bit rate mode : Constant

Bit rate : 320 kb/s

Channel(s) : 2 channels

Channel layout : L R

Sampling rate : 48.0 kHz

Frame rate : 31.250 FPS (1536 SPF)

Compression mode : Lossy

Delay relative to video : -5 ms

Stream size : 230 MiB (9%)

Language : Arabic

Service kind : Complete Main

Default : Yes

Forced : No

Text #1

ID : 3

Format : UTF-8

Codec ID : S_TEXT/UTF8

Codec ID/Info : UTF-8 Plain Text

Duration : 1 h 29 min

Bit rate : 18 b/s

Count of elements : 375

Stream size : 12.1 KiB (0%)

Language : English

Default : Yes

Forced : No

Text #2

ID : 4

Format : UTF-8

Codec ID : S_TEXT/UTF8

Codec ID/Info : UTF-8 Plain Text

Duration : 1 h 33 min

Bit rate : 18 b/s

Count of elements : 383

Stream size : 12.9 KiB (0%)

Language : Spanish

Default : No

Forced : No

Text #3

ID : 5

Format : UTF-8

Codec ID : S_TEXT/UTF8

Codec ID/Info : UTF-8 Plain Text

Duration : 1 h 36 min

Bit rate : 18 b/s

Count of elements : 389

Stream size : 13.3 KiB (0%)

Language : Turkish

Default : No

Forced : No

SCREENSHOTS:





Notturno.2020.1080p.WEB-DL.x2Download Torrent Magnet

#Notturno20201080pWEBDLx2