Notizie.Dal.Mondo.2020.iTA-EN Full Torrent Magnet Download

Download Torrent Notizie.Dal.Mondo.2020.iTA-EN Movie Full in HD Result. Movie Notizie.Dal.Mondo.2020.iTA-EN Torrent Download full. Movie Notizie.Dal.Mondo.2020.iTA-EN torrent Magnet Download Full. Notizie.Dal.Mondo.2020.iTA-EN Full Movie Torrent Download And Magnet Download For your PC And Mobiles. Latest Movie Notizie.Dal.Mondo.2020.iTA-EN Download Link In Bottom.

Torrent And Magnet Links Below

DATI – TRAMA

Genere: Western, Drammatico

Anno: 2020

Regia: Paul Greengrass

Attori: Tom Hanks, Helena Zengel, Elizabeth Marvel, Mare Winningham, Neil Sandilands, Chukwudi Iwuji, Thomas Francis Murphy, Fred Hechinger

Paese: USA

Durata: 118 min

Distribuzione: Universal Pictures, Netflix

Cinque anni dopo la fine della Guerra civile americana, il capitano Jefferson Kyle Kidd, vedovo e veterano che ha combattuto tre guerre, si sposta di città in città come narratore, raccontando storie di presidenti, regine, gloriose faide, catastrofi devastanti e avvincenti avventure dai luoghi più remoti del mondo. Nelle pianure del Texas, incontra Johanna, una bambina di dieci anni accolta dai Kiowa sei anni prima e cresciuta come una di loro. Ostile a un mondo che non ha mai sperimentato, Johanna deve essere riportata contro la sua stessa volontà alla zia e allo zio biologici. Kidd accetta di accompagnare la piccola ma, durante il viaggio per centinaia di miglia nelle lande selvagge, i due si ritrovano ad affrontare enormi sfide, sia umane sia naturali, mentre cercano un posto che entrambi possano chiamare casa.

IMMAGINI



REPORT

General

Unique ID : 220082957251151155241295846179664635300 (0xA5926F8E1801043464351FFD7E1525A4)

Complete name : Notizie.Dal.Mondo.2020.iTA-ENG.Bluray.2160p.x265-CYBER.mkv

Format : Matroska

Format version : Version 2

File size : 17.6 GiB

Duration : 1 h 59 min

Overall bit rate : 21.0 Mb/s

Movie name : “ENJOY”

Encoded date : UTC 2021-03-17 22:28:03

Writing application : mkvmerge v45.0.0 (‘Heaven in Pennies’) 64-bit

Writing library : libebml v1.3.10 + libmatroska v1.5.2

Video

ID : 1

Format : HEVC

Format/Info : High Efficiency Video Coding

Format profile : Main [email protected]@Main

HDR format : SMPTE ST 2086, HDR10 compatible

Codec ID : V_MPEGH/ISO/HEVC

Duration : 1 h 58 min

Bit rate : 20.0 Mb/s

Width : 3 840 pixels

Height : 1 608 pixels

Display aspect ratio : 2.40:1

Frame rate mode : Constant

Frame rate : 23.976 (24000/1001) FPS

Color space : YUV

Chroma subsampling : 4:2:0

Bit depth : 10 bits

Bits/(Pixel*Frame) : 0.135

Stream size : 16.5 GiB (94%)

Writing library : x265 3.4+33-5fa76b3fc:[Windows][*C|Y|B|E|R*][64 bit] 10bit

Encoding settings : cpuid=1111039 / frame-threads=5 / numa-pools=32 / wpp / no-pmode / no-pme / no-psnr / no-ssim / log-level=2 / input-csp=1 / input-res=3840×1608 / interlace=0 / total-frames=0 / level-idc=0 / high-tier=1 / uhd-bd=0 / ref=2 / no-allow-non-conformance / repeat-headers / annexb / no-aud / no-hrd / info / hash=0 / no-temporal-layers / no-open-gop / min-keyint=23 / keyint=250 / gop-lookahead=0 / bframes=4 / b-adapt=0 / b-pyramid / bframe-bias=0 / rc-lookahead=15 / lookahead-slices=8 / scenecut=40 / hist-scenecut=0 / radl=0 / no-splice / no-intra-refresh / ctu=64 / min-cu-size=8 / no-rect / no-amp / max-tu-size=32 / tu-inter-depth=1 / tu-intra-depth=1 / limit-tu=0 / rdoq-level=0 / dynamic-rd=0.00 / no-ssim-rd / signhide / no-tskip / nr-intra=0 / nr-inter=0 / no-constrained-intra / strong-intra-smoothing / max-merge=2 / limit-refs=3 / no-limit-modes / me=1 / subme=1 / merange=57 / temporal-mvp / no-frame-dup / no-hme / weightp / no-weightb / no-analyze-src-pics / deblock=0:0 / sao / no-sao-non-deblock / rd=2 / selective-sao=4 / early-skip / rskip / fast-intra / no-tskip-fast / no-cu-lossless / no-b-intra / no-splitrd-skip / rdpenalty=0 / psy-rd=2.00 / psy-rdoq=0.00 / no-rd-refine / no-lossless / cbqpoffs=0 / crqpoffs=0 / rc=crf / crf=17.0 / qcomp=0.60 / qpstep=4 / stats-write=0 / stats-read=0 / ipratio=1.40 / pbratio=1.30 / aq-mode=2 / aq-strength=1.00 / cutree / zone-count=0 / no-strict-cbr / qg-size=32 / no-rc-grain / qpmax=69 / qpmin=0 / no-const-vbv / sar=1 / overscan=0 / videoformat=5 / range=0 / colorprim=9 / transfer=16 / colormatrix=9 / chromaloc=0 / display-window=0 / master-display=G(13250,34500)B(7500,3000)R(34000,16000)WP(15635,16450)L(10000000,50) / cll=1000,184 / min-luma=0 / max-luma=1023 / log2-max-poc-lsb=8 / vui-timing-info / vui-hrd-info / slices=1 / no-opt-qp-pps / no-opt-ref-list-length-pps / no-multi-pass-opt-rps / scenecut-bias=0.05 / hist-threshold=0.03 / no-opt-cu-delta-qp / no-aq-motion / hdr10 / no-hdr10-opt / no-dhdr10-opt / no-idr-recovery-sei / analysis-reuse-level=0 / analysis-save-reuse-level=0 / analysis-load-reuse-level=0 / scale-factor=0 / refine-intra=0 / refine-inter=0 / refine-mv=1 / refine-ctu-distortion=0 / no-limit-sao / ctu-info=0 / no-lowpass-dct / refine-analysis-type=0 / copy-pic=1 / max-ausize-factor=1.0 / no-dynamic-refine / no-single-sei / no-hevc-aq / no-svt / no-field / qp-adaptation-range=1.00 / no-scenecut-aware-qpconformance-window-offsets / right=0 / bottom=0 / decoder-max-rate=0 / no-vbv-live-multi-pass

Language : English

Default : Yes

Forced : No

Color range : Limited

Color primaries : BT.2020

Transfer characteristics : PQ

Matrix coefficients : BT.2020 non-constant

Mastering display color primaries : Display P3

Mastering display luminance : min: 0.0050 cd/m2, max: 1000 cd/m2

Maximum Content Light Level : 1000 cd/m2

Maximum Frame-Average Light Level : 184 cd/m2

Audio #1

ID : 2

Format : AC-3

Format/Info : Audio Coding 3

Commercial name : Dolby Digital

Codec ID : A_AC3

Duration : 1 h 59 min

Bit rate mode : Constant

Bit rate : 640 kb/s

Channel(s) : 6 channels

Channel layout : L R C LFE Ls Rs

Sampling rate : 48.0 kHz

Frame rate : 31.250 FPS (1536 SPF)

Compression mode : Lossy

Stream size : 548 MiB (3%)

Title : AMZ RESYNC

Language : Italian

Service kind : Complete Main

Default : Yes

Forced : No

Audio #2

ID : 3

Format : AC-3

Format/Info : Audio Coding 3

Commercial name : Dolby Digital

Codec ID : A_AC3

Duration : 1 h 58 min

Bit rate mode : Constant

Bit rate : 640 kb/s

Channel(s) : 6 channels

Channel layout : L R C LFE Ls Rs

Sampling rate : 48.0 kHz

Frame rate : 31.250 FPS (1536 SPF)

Compression mode : Lossy

Stream size : 542 MiB (3%)

Language : English

Service kind : Complete Main

Default : No

Forced : No

Text #1

ID : 4

Format : UTF-8

Codec ID : S_TEXT/UTF8

Codec ID/Info : UTF-8 Plain Text

Duration : 1 h 52 min

Bit rate : 1 b/s

Count of elements : 51

Stream size : 1.13 KiB (0%)

Title : FORCED

Language : Italian

Default : Yes

Forced : No

Text #2

ID : 5

Format : UTF-8

Codec ID : S_TEXT/UTF8

Codec ID/Info : UTF-8 Plain Text

Duration : 1 h 52 min

Bit rate : 29 b/s

Count of elements : 921

Stream size : 24.4 KiB (0%)

Title : REGOLARI

Language : Italian

Default : No

Forced : No

Text #3

ID : 6

Format : UTF-8

Codec ID : S_TEXT/UTF8

Codec ID/Info : UTF-8 Plain Text

Duration : 1 h 52 min

Bit rate : 37 b/s

Count of elements : 1123

Stream size : 30.8 KiB (0%)

Title : Subs Eng N.U.

Language : English

Default : No

Forced : No

Menu

00:00:00.000 : en:Chapter 01

00:03:43.765 : en:Chapter 02

00:11:33.318 : en:Chapter 03

00:15:29.762 : en:Chapter 04

00:22:58.377 : en:Chapter 05

00:30:33.707 : en:Chapter 06

00:35:44.934 : en:Chapter 07

00:42:12.989 : en:Chapter 08

00:47:37.855 : en:Chapter 09

00:55:02.841 : en:Chapter 10

00:58:51.611 : en:Chapter 11

01:03:49.784 : en:Chapter 12

01:12:24.715 : en:Chapter 13

01:18:05.931 : en:Chapter 14

01:25:35.922 : en:Chapter 15

01:31:39.327 : en:Chapter 16

01:37:36.809 : en:Chapter 17

01:42:54.210 : en:Chapter 18

01:46:20.749 : en:Chapter 19

01:53:34.891 : en:Chapter 20

GOOD DOWNLOAD

Notizie.Dal.Mondo.2020.iTA-ENDownload Torrent Magnet

#NotizieDalMondo2020iTAEN