Non.Ci.Resta.Che.Piangere.198 Full Torrent Magnet Download

Download Torrent Non.Ci.Resta.Che.Piangere.198 Movie Full in HD Result. Movie Non.Ci.Resta.Che.Piangere.198 Torrent Download full. Movie Non.Ci.Resta.Che.Piangere.198 torrent Magnet Download Full. Non.Ci.Resta.Che.Piangere.198 Full Movie Torrent Download And Magnet Download For your PC And Mobiles. Latest Movie Non.Ci.Resta.Che.Piangere.198 Download Link In Bottom.

Torrent And Magnet Links Below


Non Ci Resta Che Piangere


Titolo originale: Non Ci Resta Che Piangere

Genere: Commedia

Anno: 1984

Regia: Roberto Benigni, Massimo Troisi

Attori: Massimo Troisi, Roberto Benigni, Iris Peynado, Amanda Sandrelli, Carlo Monni, Elisabetta Pozzi, Galliano Mariani, Jole Silvani, Fiorenzo Serra, Nicola Morelli, Loris Bazzocchi, Joan Peter Boom, Paolo Bonacelli, Mario Diano, Livia Venturini

Paese: Italia

Durata: 112 min

Distribuzione: Ceiad – Columbia Tristar Home Video, Cecchi Gori Home Video, L’unita’ Video; Dvd Cecchi Gori ( 2002).

Sceneggiatura: Massimo Troisi, Roberto Benigni, Giuseppe Bertolucci

Fotografia: Giuseppe Rotunno

Montaggio: Nino Baragli

Musiche: Pino Donaggio

Produzione: Yarno Cinematografica, Best International Film


Non ci resta che piangere è un film del 1984 diretto da Roberto Benigni e Massimo Troisi.

I protagonisti della vicenda sono l’insegnante Saverio (Roberto Benigni) e il bidello Mario (Massimo Troisi), amici di vecchia data. I due si trovano in un punto non precisato della campagna toscana, fermi ad un passaggio a livello. L’attesa aumenta l’angoscia di Saverio, molto preoccupato per la sorella Gabriella, depressa dopo la rottura con il suo fidanzato americano.

Stanchi di attendere il treno, Mario e Saverio si avventurano in un sentiero principale ma, quando la macchina ha un improvviso guasto, sono costretti a soggiornare in una sperduta locanda. Al loro risveglio, i due amici si ritrovano catapultati nella Toscana del XV secolo e, confusi e sotto shock, decidono di accettare l’ospitalità di Vitellozzo (Carlo Monni). L’uomo confessa loro che la sua famiglia si trova invischiata nella terribile faida con Guglielmo Capecchio, che sta decimando la sua dinastia. Perciò chiede aiuto agli ospiti per scrivere una lettera a Girolamo Savonarola.

Mario, intanto, fatica ad ambientarsi nel clima medioevale, trovando sollievo solo grazie alla conoscenza della giovane dama Pia (Amanda Sandrelli). Saverio, invece, desidera trovare Colombo per impedirgli di scoprire l’America, sottraendo così sua sorella dal suo triste futuro.

Mario e Saverio partono alla volta della Spagna, non prima di aver conosciuto Leonardo da Vinci (Paolo Bonacelli) e avergli parlato delle prodigiose scoperte scientifiche e tecniche del loro secolo.

Lungo il cammino, i due incontrano Astriaha (Iris Peynado), una bella amazzone che ha il compito di proteggere le navi di Colombo. Mario e Saverio si innamorano entrambi della donna e, mentre si contendono il suo amore, la storia si concretizzerà sotto i loro occhi…




General

Unique ID : 180881625533391672419569225035900268071 (0x881488ADB2AA4B798C1E75EB09C42E27)

Complete name : Non.Ci.Resta.Che.Piangere.1984.iTALiAN.AC3.SUB.iTA.ENG.BluRay.1080p.x264.jeddak-MIRCrew.mkv

Format : Matroska

Format version : Version 2

File size : 2.38 GiB

Duration : 1 h 51 min

Overall bit rate : 3 053 kb/s

Movie name : Non.Ci.Resta.Che.Piangere.1984.iTALiAN.AC3.SUB.iTA.ENG.BluRay.1080p.x264.jeddak-MIRCrew

Encoded date : UTC 2021-04-08 17:34:51

Writing application : mkvmerge v5.6.0 (‘Kenya Kane’) built on May 27 2012 16:44:04

Writing library : libebml v1.2.3 + libmatroska v1.3.0 / Lavf58.29.100

Video

ID : 1

Format : AVC

Format/Info : Advanced Video Codec

Format profile : [email protected]
Format settings : CABAC / 4 Ref Frames

Format settings, CABAC : Yes

Format settings, Reference : 4 frames

Codec ID : V_MPEG4/ISO/AVC

Duration : 1 h 51 min

Bit rate : 2 600 kb/s

Width : 1 920 pixels

Height : 1 080 pixels

Display aspect ratio : 16:9

Frame rate mode : Constant

Frame rate : 23.976 (24000/1001) FPS

Color space : YUV

Chroma subsampling : 4:2:0

Bit depth : 8 bits

Scan type : Progressive

Bits/(Pixel*Frame) : 0.052

Stream size : 1.98 GiB (83%)

Title : …::: jeddak MIRCrew :::…

Writing library : x264 core 148

Encoding settings : cabac=1 / ref=3 / deblock=1:-1:-1 / analyse=0x3:0x113 / me=hex / subme=7 / psy=1 / psy_rd=1.00:0.15 / mixed_ref=1 / me_range=16 / chroma_me=1 / trellis=1 / 8x8dct=1 / cqm=0 / deadzone=21,11 / fast_pskip=1 / chroma_qp_offset=-3 / threads=6 / lookahead_threads=1 / sliced_threads=0 / nr=0 / decimate=1 / interlaced=0 / bluray_compat=0 / constrained_intra=0 / bframes=3 / b_pyramid=2 / b_adapt=1 / b_bias=0 / direct=1 / weightb=1 / open_gop=0 / weightp=2 / keyint=240 / keyint_min=24 / scenecut=40 / intra_refresh=0 / rc_lookahead=40 / rc=abr / mbtree=1 / bitrate=2600 / ratetol=1.0 / qcomp=0.60 / qpmin=0 / qpmax=69 / qpstep=4 / vbv_maxrate=62500 / vbv_bufsize=78125 / nal_hrd=none / filler=0 / ip_ratio=1.40 / aq=1:1.00

Default : Yes

Forced : No

Color range : Limited

Color primaries : BT.709

Transfer characteristics : BT.709

Matrix coefficients : BT.709

Audio

ID : 2

Format : AC-3

Format/Info : Audio Coding 3

Commercial name : Dolby Digital

Codec ID : A_AC3

Duration : 1 h 51 min

Bit rate mode : Constant

Bit rate : 448 kb/s

Channel(s) : 6 channels

Channel layout : L R C LFE Ls Rs

Sampling rate : 48.0 kHz

Frame rate : 31.250 FPS (1536 SPF)

Compression mode : Lossy

Delay relative to video : -5 ms

Stream size : 358 MiB (15%)

Title : iTA AC3 5.1

Language : Italian

Service kind : Complete Main

Default : Yes

Forced : No

Text #1

ID : 3

Format : ASS

Codec ID : S_TEXT/ASS

Codec ID/Info : Advanced Sub Station Alpha

Duration : 1 h 50 min

Compression mode : Lossless

Title : iTA NON UDENTI

Language : Italian

Default : No

Forced : No

Text #2

ID : 4

Format : ASS

Codec ID : S_TEXT/ASS

Codec ID/Info : Advanced Sub Station Alpha

Duration : 1 h 50 min

Compression mode : Lossless

Title : ENG REGULAR

Language : English

Default : No

Forced : No

Non.Ci.Resta.Che.Piangere.198Download Torrent Magnet

#NonCiRestaChePiangere198