Nomadland.2020.HDRip.XviD.B4N Full Torrent Magnet Download

Download Torrent Nomadland.2020.HDRip.XviD.B4N Movie Full in HD Result. Movie Nomadland.2020.HDRip.XviD.B4N Torrent Download full. Movie Nomadland.2020.HDRip.XviD.B4N torrent Magnet Download Full. Nomadland.2020.HDRip.XviD.B4N Full Movie Torrent Download And Magnet Download For your PC And Mobiles. Latest Movie Nomadland.2020.HDRip.XviD.B4N Download Link In Bottom.

Torrent And Magnet Links Below

Nomadland.2020.HDRip.XviD.B4ND1T69

Director: Chloé Zhao

Writers: Jessica Bruder (based on the book by), Chloé Zhao (written for the screen by)

Stars: Frances McDormand, David Strathairn, Linda May

Plot/Story:

After losing everything in the Great Recession, a woman embarks on a journey through the American West, living as a van-dwelling modern-day nomad.

General

Complete name : Nomadland.2020.HDRip.XviD.B4ND1T69.avi

Format : AVI

Format/Info : Audio Video Interleave

File size : 599 MiB

Duration : 1 h 47 min

Overall bit rate : 778 kb/s

Subtitles : Yes…Included(HI)

Video

ID : 0

Format : MPEG-4 Visual

Format profile : Advanced [email protected]
Format settings, BVOP : 2

Format settings, QPel : No

Format settings, GMC : No warppoints

Format settings, Matrix : Default (H.263)

Codec ID : XVID

Codec ID/Hint : XviD

Duration : 1 h 47 min

Bit rate : 637 kb/s

Width : 720 pixels

Height : 304 pixels

Display aspect ratio : 2.35:1

Frame rate : 23.976 (24000/1001) FPS

Color space : YUV

Chroma subsampling : 4:2:0

Bit depth : 8 bits

Scan type : Progressive

Compression mode : Lossy

Bits/(Pixel*Frame) : 0.121

Stream size : 490 MiB (82%)

Writing library : XviD 64

Audio

ID : 1

Format : MPEG Audio

Format version : Version 1

Format profile : Layer 3

Codec ID : 55

Codec ID/Hint : MP3

Duration : 1 h 47 min

Bit rate mode : Constant

Bit rate : 128 kb/s

Channel(s) : 2 channels

Sampling rate : 48.0 kHz

Compression mode : Lossy

Stream size : 98.5 MiB (16%)

Alignment : Aligned on interleaves

Interleave, duration : 24 ms (0.58 video frame)

Screenshots:









Please Seed For As Long As Possible

Or At Least 1:1 Ratio…Thanks

Enjoy Peeps

Nomadland.2020.HDRip.XviD.B4NDownload Torrent Magnet

#Nomadland2020HDRipXviDB4N