News.Of.The.World – Notizie.D Full Torrent Magnet Download

Download Torrent News.Of.The.World – Notizie.D Movie Full in HD Result. Movie News.Of.The.World – Notizie.D Torrent Download full. Movie News.Of.The.World – Notizie.D torrent Magnet Download Full. News.Of.The.World – Notizie.D Full Movie Torrent Download And Magnet Download For your PC And Mobiles. Latest Movie News.Of.The.World – Notizie.D Download Link In Bottom.

Torrent And Magnet Links Below


Notizie Dal Mondo


Titolo originale: News Of The World

Genere: Western, Drammatico

Anno: 2020

Regia: Paul Greengrass

Attori: Tom Hanks, Helena Zengel, Elizabeth Marvel, Mare Winningham, Neil Sandilands, Chukwudi Iwuji, Thomas Francis Murphy, Fred Hechinger

Paese: USA

Durata: 118 min

Distribuzione: Universal Pictures, Netflix

Sceneggiatura: Paul Greengrass

Fotografia: Dariusz Wolski

Montaggio: William Goldenberg

Musiche: James Newton Howard

Produzione: Perfect World Pictures, Playtone, Pretty Pictures


Notizie dal mondo, il film diretto da Paul Greengrass, ambientato alla fine della guerra civile americana, segue la storia del Capitano Jefferson Kidd (Tom Hanks), un uomo dalle grandi capacità oratorie, rimasto vedovo, che viaggia per il Texas raccontando ciò che accade in giro per il mondo. Nel corso del suo peregrinare il Capitano dovrà portare a termine un compito non facile: riportare a casa dagli zii Johanna Leonberger (Helena Zengel), una ragazzina di dieci anni, rapita sei anni prima dalla tribù nativa dei Kiowa e cresciuta come una di loro. Johanna verrà rimandata dove la legge stabilisce che debba vivere, contro la sua volontà, lontana da quel mondo a lei sconosciuto.

Il viaggio di molte miglia lungo la natura selvaggia per raggiungere l’obiettivo finale, sarà pieno d’insidie ma rappresenterà l’occasione per far nascere un legame indissolubile tra i due protagonisti.




General

Unique ID : 210435063210071942959117808660901427719 (0x9E5051A744266876954D25154FDA7A07)

Complete name : Notizie.Dal.Mondo.2020.iTA.ENG.AC3.SUB.iTA.ENG.BluRay.1080p.x264.jeddak-MIRCrew.mkv

Format : Matroska

Format version : Version 2

File size : 2.52 GiB

Duration : 1 h 59 min

Overall bit rate : 3 008 kb/s

Movie name : Notizie.Dal.Mondo.2020.iTA.ENG.AC3.SUB.iTA.ENG.BluRay.1080p.x264.jeddak-MIRCrew

Encoded date : UTC 2021-03-17 20:37:59

Writing application : mkvmerge v5.6.0 (‘Kenya Kane’) built on May 27 2012 16:44:04

Writing library : libebml v1.2.3 + libmatroska v1.3.0 / Lavf58.29.100

Video

ID : 1

Format : AVC

Format/Info : Advanced Video Codec

Format profile : [email protected]
Format settings : CABAC / 4 Ref Frames

Format settings, CABAC : Yes

Format settings, Reference : 4 frames

Codec ID : V_MPEG4/ISO/AVC

Duration : 1 h 58 min

Bit rate : 2 052 kb/s

Nominal bit rate : 2 200 kb/s

Width : 1 920 pixels

Height : 804 pixels

Display aspect ratio : 2.40:1

Frame rate mode : Constant

Frame rate : 23.976 (24000/1001) FPS

Color space : YUV

Chroma subsampling : 4:2:0

Bit depth : 8 bits

Scan type : Progressive

Bits/(Pixel*Frame) : 0.055

Stream size : 1.70 GiB (67%)

Title : …::: jeddak MIRCrew :::…

Writing library : x264 core 148

Encoding settings : cabac=1 / ref=3 / deblock=1:-1:-1 / analyse=0x3:0x113 / me=hex / subme=7 / psy=1 / psy_rd=1.00:0.15 / mixed_ref=1 / me_range=16 / chroma_me=1 / trellis=1 / 8x8dct=1 / cqm=0 / deadzone=21,11 / fast_pskip=1 / chroma_qp_offset=-3 / threads=6 / lookahead_threads=1 / sliced_threads=0 / nr=0 / decimate=1 / interlaced=0 / bluray_compat=0 / constrained_intra=0 / bframes=3 / b_pyramid=2 / b_adapt=1 / b_bias=0 / direct=1 / weightb=1 / open_gop=0 / weightp=2 / keyint=240 / keyint_min=24 / scenecut=40 / intra_refresh=0 / rc_lookahead=40 / rc=abr / mbtree=1 / bitrate=2200 / ratetol=1.0 / qcomp=0.60 / qpmin=0 / qpmax=69 / qpstep=4 / vbv_maxrate=62500 / vbv_bufsize=78125 / nal_hrd=none / filler=0 / ip_ratio=1.40 / aq=1:1.00

Default : Yes

Forced : No

Color range : Limited

Color primaries : BT.709

Transfer characteristics : BT.709

Matrix coefficients : BT.709

Audio #1

ID : 2

Format : AC-3

Format/Info : Audio Coding 3

Commercial name : Dolby Digital

Codec ID : A_AC3

Duration : 1 h 59 min

Bit rate mode : Constant

Bit rate : 448 kb/s

Channel(s) : 6 channels

Channel layout : L R C LFE Ls Rs

Sampling rate : 48.0 kHz

Frame rate : 31.250 FPS (1536 SPF)

Compression mode : Lossy

Delay relative to video : -5 ms

Stream size : 384 MiB (15%)

Title : iTA AC3 5.1

Language : Italian

Service kind : Complete Main

Default : Yes

Forced : No

Audio #2

ID : 3

Format : AC-3

Format/Info : Audio Coding 3

Commercial name : Dolby Digital

Codec ID : A_AC3

Duration : 1 h 58 min

Bit rate mode : Constant

Bit rate : 448 kb/s

Channel(s) : 6 channels

Channel layout : L R C LFE Ls Rs

Sampling rate : 48.0 kHz

Frame rate : 31.250 FPS (1536 SPF)

Compression mode : Lossy

Delay relative to video : -5 ms

Stream size : 379 MiB (15%)

Title : ENG AC3 5.1

Language : English

Service kind : Complete Main

Default : No

Forced : No

Text #1

ID : 4

Format : UTF-8

Codec ID : S_TEXT/UTF8

Codec ID/Info : UTF-8 Plain Text

Title : iTA FORCED

Language : Italian

Default : Yes

Forced : Yes

Text #2

ID : 5

Format : ASS

Codec ID : S_TEXT/ASS

Codec ID/Info : Advanced Sub Station Alpha

Duration : 1 h 53 min

Compression mode : Lossless

Title : iTA REGULAR

Language : Italian

Default : No

Forced : No

Text #3

ID : 6

Format : ASS

Codec ID : S_TEXT/ASS

Codec ID/Info : Advanced Sub Station Alpha

Duration : 1 h 53 min

Compression mode : Lossless

Title : ENG NON UDENTI

Language : English

Default : No

Forced : No

Menu

00:00:00.000 : :Capitolo 01

00:03:43.765 : :Capitolo 02

00:11:33.318 : :Capitolo 03

00:15:29.762 : :Capitolo 04

00:22:58.377 : :Capitolo 05

00:30:33.707 : :Capitolo 06

00:35:44.934 : :Capitolo 07

00:42:12.989 : :Capitolo 08

00:47:37.855 : :Capitolo 09

00:55:02.841 : :Capitolo 10

00:58:51.611 : :Capitolo 11

01:03:49.784 : :Capitolo 12

01:12:24.715 : :Capitolo 13

01:18:05.931 : :Capitolo 14

01:25:35.922 : :Capitolo 15

01:31:39.327 : :Capitolo 16

01:37:36.809 : :Capitolo 17

01:42:54.210 : :Capitolo 18

01:46:20.749 : :Capitolo 19

01:53:34.891 : :Capitolo 20

News.Of.The.World – Notizie.DDownload Torrent Magnet

#NewsOfTheWorld #NotizieD