News of the World 2020 1080p Full Torrent Magnet Download

Download Torrent News of the World 2020 1080p Movie Full in HD Result. Movie News of the World 2020 1080p Torrent Download full. Movie News of the World 2020 1080p torrent Magnet Download Full. News of the World 2020 1080p Full Movie Torrent Download And Magnet Download For your PC And Mobiles. Latest Movie News of the World 2020 1080p Download Link In Bottom.

Torrent And Magnet Links Below



General

Unique ID                                : 255841476246155775285038650871578233599 (0xC07946A8B6C6037ABEC4FB8A0A620AFF)

Complete name                            : F:EncodeNews of the World 2020 1080p 10bit WEBRip Hindi English AAC 5.1 x265 HEVC – MoviePirate – Telly.mkv

Format                                   : Matroska

Format version                           : Version 4

File size                                : 2.36 GiB

Duration                                 : 1 h 59 min

Overall bit rate                         : 2 826 kb/s

Movie name                               : MoviePirate – Telly

Encoded date                             : UTC 2021-02-11 11:06:46

Writing application                      : mkvmerge v40.0.0 (‘Old Town Road + Pony’) 64-bit

Writing library                          : libebml v1.3.9 + libmatroska v1.5.2

Video

ID                                       : 1

Format                                   : HEVC

Format/Info                              : High Efficiency Video Coding

Format profile                           : Main [email protected]@Main

Codec ID                                 : V_MPEGH/ISO/HEVC

Duration                                 : 1 h 58 min

Bit rate                                 : 2 343 kb/s

Width                                    : 1 920 pixels

Height                                   : 800 pixels

Display aspect ratio                     : 2.40:1

Frame rate mode                          : Constant

Frame rate                               : 23.976 (24000/1001) FPS

Color space                              : YUV

Chroma subsampling                       : 4:2:0

Bit depth                                : 10 bits

Bits/(Pixel*Frame)                       : 0.064

Stream size                              : 1.94 GiB (82%)

Title                                    : AMZN

Writing library                          : x265 3.2+9-971180b100f8:[Windows][GCC 9.2.0][64 bit] 10bit

Encoding settings                        : cpuid=1111039 / frame-threads=2 / numa-pools=4 / wpp / no-pmode / no-pme / no-psnr / no-ssim / log-level=2 / input-csp=1 / input-res=1920×800 / interlace=0 / total-frames=170208 / level-idc=0 / high-tier=1 / uhd-bd=0 / ref=2 / no-allow-non-conformance / no-repeat-headers / annexb / no-aud / no-hrd / info / hash=0 / no-temporal-layers / open-gop / min-keyint=23 / keyint=250 / gop-lookahead=0 / bframes=4 / b-adapt=0 / b-pyramid / bframe-bias=0 / rc-lookahead=15 / lookahead-slices=5 / scenecut=40 / radl=0 / no-splice / no-intra-refresh / ctu=64 / min-cu-size=8 / no-rect / no-amp / max-tu-size=32 / tu-inter-depth=1 / tu-intra-depth=1 / limit-tu=0 / rdoq-level=0 / dynamic-rd=0.00 / no-ssim-rd / signhide / no-tskip / nr-intra=0 / nr-inter=0 / no-constrained-intra / strong-intra-smoothing / max-merge=2 / limit-refs=3 / no-limit-modes / me=1 / subme=2 / merange=57 / temporal-mvp / no-frame-dup / no-hme / weightp / no-weightb / no-analyze-src-pics / deblock=0:0 / sao / no-sao-non-deblock / rd=2 / selective-sao=4 / early-skip / rskip / fast-intra / no-tskip-fast / no-cu-lossless / no-b-intra / no-splitrd-skip / rdpenalty=0 / psy-rd=2.00 / psy-rdoq=0.00 / no-rd-refine / no-lossless / cbqpoffs=0 / crqpoffs=0 / rc=abr / bitrate=2400 / qcomp=0.60 / qpstep=4 / stats-write=0 / stats-read=0 / ipratio=1.40 / pbratio=1.30 / aq-mode=2 / aq-strength=1.00 / cutree / zone-count=0 / no-strict-cbr / qg-size=32 / no-rc-grain / qpmax=69 / qpmin=0 / no-const-vbv / sar=0 / overscan=0 / videoformat=5 / range=0 / colorprim=1 / transfer=1 / colormatrix=1 / chromaloc=0 / display-window=0 / cll=0,0 / min-luma=0 / max-luma=1023 / log2-max-poc-lsb=8 / vui-timing-info / vui-hrd-info / slices=1 / no-opt-qp-pps / no-opt-ref-list-length-pps / no-multi-pass-opt-rps / scenecut-bias=0.05 / no-opt-cu-delta-qp / no-aq-motion / no-hdr / no-hdr-opt / no-dhdr10-opt / no-idr-recovery-sei / analysis-reuse-level=5 / scale-factor=0 / refine-intra=0 / refine-inter=0 / refine-mv=1 / refine-ctu-distortion=0 / no-limit-sao / ctu-info=0 / no-lowpass-dct / refine-analysis-type=0 / copy-pic=1 / max-ausize-factor=1.0 / no-dynamic-refine / no-single-sei / no-hevc-aq / no-svt / no-field / qp-adaptation-range=1.00

Default                                  : Yes

Forced                                   : No

Color range                              : Limited

Color primaries                          : BT.709

Transfer characteristics                 : BT.709

Matrix coefficients                      : BT.709

Audio #1

ID                                       : 2

Format                                   : AAC LC SBR

Format/Info                              : Advanced Audio Codec Low Complexity with Spectral Band Replication

Commercial name                          : HE-AAC

Format settings                          : Explicit

Codec ID                                 : A_AAC-2

Duration                                 : 1 h 58 min

Bit rate                                 : 256 kb/s

Channel(s)                               : 6 channels

Channel layout                           : C L R Ls Rs LFE

Sampling rate                            : 48.0 kHz

Frame rate                               : 23.438 FPS (2048 SPF)

Compression mode                         : Lossy

Stream size                              : 217 MiB (9%)

Title                                    : MoviePirate – Telly

Language                                 : English

Default                                  : No

Forced                                   : No

Audio #2

ID                                       : 3

Format                                   : AAC LC SBR

Format/Info                              : Advanced Audio Codec Low Complexity with Spectral Band Replication

Commercial name                          : HE-AAC

Format settings                          : Explicit

Codec ID                                 : A_AAC-2

Duration                                 : 1 h 59 min

Bit rate                                 : 256 kb/s

Channel(s)                               : 6 channels

Channel layout                           : C L R Ls Rs LFE

Sampling rate                            : 48.0 kHz

Frame rate                               : 23.438 FPS (2048 SPF)

Compression mode                         : Lossy

Stream size                              : 219 MiB (9%)

Title                                    : MoviePirate – Telly  , NF Audio

Language                                 : Hindi

Default                                  : No

Forced                                   : No

Text

ID                                       : 4

Format                                   : UTF-8

Codec ID                                 : S_TEXT/UTF8

Codec ID/Info                            : UTF-8 Plain Text

Duration                                 : 1 h 50 min

Bit rate                                 : 32 b/s

Count of elements                        : 1011

Stream size                              : 26.1 KiB (0%)

Language                                 : English

Default                                  : No

Forced                                   : No

Menu

00:00:00.000                             : en:Studio Logo

00:00:30.000                             : en:Scene 2

00:03:41.000                             : en:Scene 3

00:09:58.000                             : en:Scene 4

00:15:37.000                             : en:Scene 5

00:19:51.000                             : en:Scene 6

00:23:00.000                             : en:Scene 7

00:30:30.000                             : en:Scene 8

00:35:48.000                             : en:Scene 9

00:42:04.000                             : en:Scene 10

00:51:10.000                             : en:Scene 11

00:58:46.000                             : en:Scene 12

01:01:41.000                             : en:Scene 13

01:09:53.000                             : en:Scene 14

01:12:20.000                             : en:Scene 15

01:16:41.000                             : en:Scene 16

01:23:03.000                             : en:Scene 17

01:25:51.000                             : en:Scene 18

01:28:19.000                             : en:Scene 19

01:31:39.000                             : en:Scene 20

01:33:42.000                             : en:Scene 21

01:37:24.000                             : en:Scene 22

01:51:00.000                             : en:Scene 23

01:53:36.000                             : en:End Credits






News of the World 2020 1080p Download Torrent Magnet

#News #World #1080p