New.Order.[Nuevo.Orden].2020. Full Torrent Magnet Download

Download Torrent New.Order.[Nuevo.Orden].2020. Movie Full in HD Result. Movie New.Order.[Nuevo.Orden].2020. Torrent Download full. Movie New.Order.[Nuevo.Orden].2020. torrent Magnet Download Full. New.Order.[Nuevo.Orden].2020. Full Movie Torrent Download And Magnet Download For your PC And Mobiles. Latest Movie New.Order.[Nuevo.Orden].2020. Download Link In Bottom.

Torrent And Magnet Links Below

Release: New.Order.[Nuevo.Orden].2020.1080p.WEB-DL.x264

IMDB: https://www.imdb.com/title/tt12474056/

Subtitle: None

Plot: A high-society wedding is interrupted by the arrival of unwelcome guests.

Complete name               : New.Order.[Nuevo.Orden].2020.1080p.WEB-DL.x264

Format : Matroska

Format version : Version 4

File size : 1.58 GiB

Duration : 1 h 25 min

Overall bit rate : 2 636 kb/s

Movie name : DC

Encoded date : UTC 2021-01-18 21:45:34

Writing application : mkvmerge v7.0.0 (‘Where We Going’) 64bit built on Jun 9 2014 15:16:27

Writing library : libebml v1.3.0 + libmatroska v1.4.1

Video

ID : 1

Format : AVC

Format/Info : Advanced Video Codec

Format profile : [email protected]
Format settings : CABAC / 5 Ref Frames

Format settings, CABAC : Yes

Format settings, Reference : 5 frames

Codec ID : V_MPEG4/ISO/AVC

Duration : 1 h 25 min

Bit rate : 2 378 kb/s

Nominal bit rate : 2 560 kb/s

Width : 1 920 pixels

Height : 804 pixels

Display aspect ratio : 2.40:1

Frame rate mode : Constant

Frame rate : 23.810 FPS

Color space : YUV

Chroma subsampling : 4:2:0

Bit depth : 8 bits

Scan type : Progressive

Bits/(Pixel*Frame) : 0.065

Stream size : 1.43 GiB (90%)

Writing library : x264 core 157 r2935 545de2f

Encoding settings : cabac=1 / ref=5 / deblock=1:-1:-1 / analyse=0x1:0x111 / me=hex / subme=8 / psy=1 / psy_rd=1.00:0.15 / mixed_ref=1 / me_range=16 / chroma_me=1 / trellis=2 / 8x8dct=0 / cqm=0 / deadzone=21,11 / fast_pskip=1 / chroma_qp_offset=-3 / threads=12 / lookahead_threads=2 / sliced_threads=0 / nr=0 / decimate=1 / interlaced=0 / bluray_compat=0 / constrained_intra=0 / bframes=3 / b_pyramid=2 / b_adapt=1 / b_bias=0 / direct=3 / weightb=1 / open_gop=0 / weightp=2 / keyint=240 / keyint_min=24 / scenecut=40 / intra_refresh=0 / rc_lookahead=50 / rc=abr / mbtree=1 / bitrate=2560 / ratetol=1.0 / qcomp=0.60 / qpmin=0 / qpmax=69 / qpstep=4 / vbv_maxrate=50000 / vbv_bufsize=62500 / nal_hrd=none / filler=0 / ip_ratio=1.40 / aq=1:1.00

Language : Spanish

Default : Yes

Forced : No

Color range : Limited

Color primaries : BT.709

Transfer characteristics : BT.709

Matrix coefficients : BT.709

Audio

ID : 2

Format : AC-3

Format/Info : Audio Coding 3

Commercial name : Dolby Digital

Codec ID : A_AC3

Duration : 1 h 25 min

Bit rate mode : Constant

Bit rate : 256 kb/s

Channel(s) : 2 channels

Channel layout : L R

Sampling rate : 44.1 kHz

Frame rate : 28.711 FPS (1536 SPF)

Compression mode : Lossy

Delay relative to video : -6 ms

Stream size : 157 MiB (10%)

Language : Spanish

Service kind : Complete Main

Default : Yes

Forced : No

SCREENSHOTS:



New.Order.[Nuevo.Orden].2020.Download Torrent Magnet

#NewOrderNuevoOrden2020