NASCAR 2021 Cup Series Sonoma Full Torrent Magnet Download

Download Torrent NASCAR 2021 Cup Series Sonoma Movie Full in HD Result. Movie NASCAR 2021 Cup Series Sonoma Torrent Download full. Movie NASCAR 2021 Cup Series Sonoma torrent Magnet Download Full. NASCAR 2021 Cup Series Sonoma Full Movie Torrent Download And Magnet Download For your PC And Mobiles. Latest Movie NASCAR 2021 Cup Series Sonoma Download Link In Bottom.

Torrent And Magnet Links Below

NASCAR Cup Series 2021

Sonoma Raceway

Toyota Save Mart 350

Sunday, June 6

Sonoma California





General

Complete name : NASCAR 2021 Cup Series Sonoma Toyota Save Mart 350 HDTV x264 720.mkv

Format : Matroska

Format version : Version 4

File size : 3.56 GiB

Duration : 2 h 47 min

Overall bit rate : 3 042 kb/s

Encoded date : UTC 2021-06-07 04:15:49

Writing application : mkvmerge v49.0.0 (‘Sick Of Losing Soulmates’) 64-bit

Writing library : libebml v1.4.0 + libmatroska v1.6.1

Encoding Gui : Hybrid 2020.08.02.1

Video

ID : 1

Format : AVC

Format/Info : Advanced Video Codec

Format profile : [email protected]
Format settings : CABAC / 8 Ref Frames

Format settings, CABAC : Yes

Format settings, Reference frames : 8 frames

Codec ID : V_MPEG4/ISO/AVC

Duration : 2 h 47 min

Bit rate : 2 654 kb/s

Width : 1 280 pixels

Height : 720 pixels

Display aspect ratio : 16:9

Frame rate mode : Constant

Frame rate : 59.940 (59940/1000) FPS

Original frame rate : 59.940 (60000/1001) FPS

Color space : YUV

Chroma subsampling : 4:2:0

Bit depth : 8 bits

Scan type : Progressive

Bits/(Pixel*Frame) : 0.048

Stream size : 3.10 GiB (87%)

Writing library : x264 core 161 r3018 db0d417

Default : Yes

Forced : Yes

Color range : Limited

Matrix coefficients : BT.709

Audio

ID : 2

Format : AC-3

Format/Info : Audio Coding 3

Commercial name : Dolby Digital

Codec ID : A_AC3

Duration : 2 h 47 min

Bit rate mode : Constant

Bit rate : 384 kb/s

Channel(s) : 6 channels

Channel layout : L R C LFE Ls Rs

Sampling rate : 48.0 kHz

Frame rate : 31.250 FPS (1536 SPF)

Compression mode : Lossy

Stream size : 460 MiB (13%)

Service kind : Complete Main

Default : Yes

Forced : No

NASCAR 2021 Cup Series SonomaDownload Torrent Magnet

#NASCAR #Cup #Series #Sonoma