Naked.Lunch.1991.BRRip.XviD.B Full Torrent Magnet Download

Download Torrent Naked.Lunch.1991.BRRip.XviD.B Movie Full in HD Result. Movie Naked.Lunch.1991.BRRip.XviD.B Torrent Download full. Movie Naked.Lunch.1991.BRRip.XviD.B torrent Magnet Download Full. Naked.Lunch.1991.BRRip.XviD.B Full Movie Torrent Download And Magnet Download For your PC And Mobiles. Latest Movie Naked.Lunch.1991.BRRip.XviD.B Download Link In Bottom.

Torrent And Magnet Links Below

Naked.Lunch.1991.BRRip.XviD.B4ND1T69

Director: David Cronenberg

Writers: William S. Burroughs (novel), David Cronenberg

Stars: Peter Weller, Judy Davis, Ian Holm

Plot/Story:

After developing an addiction to the substance he uses to kill bugs, an exterminator accidentally kills his wife, and becomes involved in a secret government plot being orchestrated by giant bugs in a port town in North Africa.

General

Complete name : Naked.Lunch.1991.BRRip.XviD.B4ND1T69.avi

Format : AVI

Format/Info : Audio Video Interleave

File size : 1.40 GiB

Duration : 1 h 55 min

Overall bit rate : 1 741 kb/s

Subtitles : Yes…Included

Video

ID : 0

Format : MPEG-4 Visual

Format profile : Advanced [email protected]
Format settings, BVOP : 2

Format settings, QPel : No

Format settings, GMC : No warppoints

Format settings, Matrix : Default (H.263)

Codec ID : XVID

Codec ID/Hint : XviD

Duration : 1 h 55 min

Bit rate : 1 600 kb/s

Width : 720 pixels

Height : 400 pixels

Display aspect ratio : 16:9

Frame rate : 24.000 FPS

Color space : YUV

Chroma subsampling : 4:2:0

Bit depth : 8 bits

Scan type : Progressive

Compression mode : Lossy

Bits/(Pixel*Frame) : 0.231

Stream size : 1.29 GiB (92%)

Writing library : XviD 64

Audio

ID : 1

Format : MPEG Audio

Format version : Version 1

Format profile : Layer 3

Codec ID : 55

Codec ID/Hint : MP3

Duration : 1 h 55 min

Bit rate mode : Constant

Bit rate : 128 kb/s

Channel(s) : 2 channels

Sampling rate : 48.0 kHz

Compression mode : Lossy

Stream size : 105 MiB (7%)

Alignment : Aligned on interleaves

Interleave, duration : 24 ms (0.58 video frame)

Screenshots:









Please Seed For As Long As Possible

Or At Least 1:1 Ratio…Thanks

Enjoy Peeps

Naked.Lunch.1991.BRRip.XviD.BDownload Torrent Magnet

#NakedLunch1991BRRipXviDB