Mystery Science Theater 3000 Full Torrent Magnet Download

Download Torrent Mystery Science Theater 3000 Movie Full in HD Result. Movie Mystery Science Theater 3000 Torrent Download full. Movie Mystery Science Theater 3000 torrent Magnet Download Full. Mystery Science Theater 3000 Full Movie Torrent Download And Magnet Download For your PC And Mobiles. Latest Movie Mystery Science Theater 3000 Download Link In Bottom.

Torrent And Magnet Links Below

Mystery Science Theater 3000 The Movie 1996 1080p BLURAY REMUX AVC AC3 4.1 – iCMAL

Parents Guide

Add to guide

Showing all 24 items

Jump to: Certification Sex & Nudity (4) Violence & Gore (10) Profanity (3) Alcohol, Drugs & Smoking (5) Frightening & Intense Scenes (2)

Certification

Edit

MPAA Rated PG-13 for some sexual humor

Certification
Australia:PG Canada:PG Canada:PG (Alberta) Germany:12 Japan:G Singapore:PG United Kingdom:PG United Kingdom:PG (Blu-ray rating) United Kingdom:PG (DVD rating) United States:PG-13

Mike Nelson and his robot companions watch and give their comments about Seyyareler çarpışıyor (1955).

Director: Jim Mallon

Writers: Michael J. Nelson, Trace Beaulieu

Stars: Trace Beaulieu, Michael J. Nelson, Jim Mallon

Storyline

The mad and evil scientist, Dr. Clayton Forrester, has created an evil little scheme that is bound to give him world global domination but first thing’s first. He plans to torment Mike Nelson and the robots by sending them a real stinker of a film to watch called, “This Island Earth.” He is convinced that this movie will drive them insane. And since the guys cannot control when the movie begins or ends, they are forced to witness the true horror that is this awful movie that has a lobster creature dressed in slacks. But will this be the ultimate cheese that breaks the boys’ spirits? It’s up to one test subject’s quick wit, sharp sense of humor, and utter intolerance for cinematic garbage to foil the plans of the scientist and to save the Earth

DownloadsMystery Science Theater 3000 The Movie 1996 1080p BLURAY REMUX AVC AC3 4.1 – iCMAL [TGx]Mystery Science Theater 3000 The Movie 1996 1080p BLURAY REMUX AVC AC3 4.1 – iCMAL.mkv

Format : Matroska

Format version : Version 4

File size : 13.2 GiB

Duration : 1 h 14 min

Overall bit rate mode : Variable

Overall bit rate : 25.4 Mb/s

Movie name : Mystery Science Theater 3000 The Movie 1996 1080p BLURAY REMUX AVC AC3 4.1 – iCMAL

Encoded date : UTC 2021-01-31 22:11:06

Writing application : mkvmerge v10.0.0 (‘To Drown In You’) 64bit

Writing library : libebml v1.3.4 + libmatroska v1.4.5

Video

ID : 1

Format : AVC

Format/Info : Advanced Video Codec

Format profile : [email protected]
Format settings : CABAC / 4 Ref Frames

Format settings, CABAC : Yes

Format settings, Reference frames : 4 frames

Codec ID : V_MPEG4/ISO/AVC

Duration : 1 h 14 min

Bit rate mode : Variable

Bit rate : 25.0 Mb/s

Maximum bit rate : 30.0 Mb/s

Width : 1 920 pixels

Height : 1 080 pixels

Display aspect ratio : 16:9

Frame rate mode : Constant

Frame rate : 23.976 (24000/1001) FPS

Color space : YUV

Chroma subsampling : 4:2:0

Bit depth : 8 bits

Scan type : Progressive

Bits/(Pixel*Frame) : 0.503

Stream size : 13.0 GiB (98%)

Title : REMUX BY iCMAL

Default : Yes

Forced : No

Color range : Limited

Color primaries : BT.709

Transfer characteristics : BT.709

Matrix coefficients : BT.709

Audio

ID : 2

Format : AC-3

Format/Info : Audio Coding 3

Commercial name : Dolby Digital

Codec ID : A_AC3

Duration : 1 h 14 min

Bit rate mode : Constant

Bit rate : 384 kb/s

Channel(s) : 6 channels

Channel layout : L R C LFE Ls Rs

Sampling rate : 48.0 kHz

Frame rate : 31.250 FPS (1536 SPF)

Compression mode : Lossy

Stream size : 205 MiB (2%)

Title : REMUX BY iCMAL

Language : English

Service kind : Complete Main

Default : Yes

Forced : No

















Mystery Science Theater 3000 Download Torrent Magnet

#Mystery #Science #Theater