My Goal Football 2021 x264 72 Full Torrent Magnet Download

Download Torrent My Goal Football 2021 x264 72 Movie Full in HD Result. Movie My Goal Football 2021 x264 72 Torrent Download full. Movie My Goal Football 2021 x264 72 torrent Magnet Download Full. My Goal Football 2021 x264 72 Full Movie Torrent Download And Magnet Download For your PC And Mobiles. Latest Movie My Goal Football 2021 x264 72 Download Link In Bottom.

Torrent And Magnet Links Below

Greets

Admin , Moderator , Noir, Ex0duS5150, theeshiznit, MisterQ, UserHEVC, miok, Silmarillion, Mr. Blue, MaDHeX and many more ;

Join Us On TeleGram

https://t.me/sahigopi

My Goal Football 2021 x264 720p WebHD Hindi THE GOPI SAHI

Format : Matroska

Format version : Version 4

File size : 635 MiB

Duration : 1 h 29 min

Overall bit rate : 997 kb/s

Movie name : My Goal Football 2021 GOPI SAHI

Encoded date : UTC 2021-04-20 03:39:55

Video

ID : 1

Format : AVC

Format/Info : Advanced Video Codec

Format profile : [email protected]
Format settings : CABAC / 5 Ref Frames

Format settings, CABAC : Yes

Format settings, Reference fra : 5 frames

Codec ID : V_MPEG4/ISO/AVC

Duration : 1 h 29 min

Bit rate : 899 kb/s

Width : 1 280 pixels

Height : 544 pixels

Display aspect ratio : 2.35:1

Frame rate mode : Constant

Frame rate : 25.000 FPS

Color space : YUV

Chroma subsampling : 4:2:0

Bit depth : 8 bits

Scan type : Progressive

Bits/(Pixel*Frame) : 0.052

Stream size : 573 MiB (90%)

Writing library : x264 core 157 r2935 545de2f

Audio

ID : 2

Format : AAC LC

Format/Info : Advanced Audio Codec Low Complexity

Codec ID : A_AAC-2

Duration : 1 h 29 min

Bit rate : 96.0 kb/s

Channel(s) : 2 channels

Channel layout : L R

Sampling rate : 48.0 kHz

Frame rate : 46.875 FPS (1024 SPF)

Compression mode : Lossy

Delay relative to video : -61 ms

Stream size : 60.8 MiB (10%)

Title : GOPI SAHI

Language : Hindi

My Goal Football 2021 x264 72Download Torrent Magnet

#Goal #Football #x264