Mumbai Saga (2021) Hindi 720p Full Torrent Magnet Download

Download Torrent Mumbai Saga (2021) Hindi 720p Movie Full in HD Result. Movie Mumbai Saga (2021) Hindi 720p Torrent Download full. Movie Mumbai Saga (2021) Hindi 720p torrent Magnet Download Full. Mumbai Saga (2021) Hindi 720p Full Movie Torrent Download And Magnet Download For your PC And Mobiles. Latest Movie Mumbai Saga (2021) Hindi 720p Download Link In Bottom.

Torrent And Magnet Links Below

General

Unique ID : 212487326661396182573963281125937650387 (0x9FDB920DBAC8FBB82F53BC4A16EE1AD3)

Complete name : Mumbai Saga (2021) Hindi 720p HD Camrip – NO LOGO – x264 AAC- Shadow.BonsaiHD.mkv

Format : Matroska

Format version : Version 4

File size : 1.23 GiB

Duration : 2 h 3 min

Overall bit rate : 1 433 kb/s

Movie name : -: Mumbai Saga 2021 Hindi :- Encoded By :- Shadow

Encoded date : UTC 2021-03-19 22:59:55

Writing application : mkvmerge v51.0.0 (‘I Wish’) 64-bit

Writing library : libebml v1.4.0 + libmatroska v1.6.2

Video

ID : 1

Format : AVC

Format/Info : Advanced Video Codec

Format profile : [email protected]
Format settings : CABAC / 1 Ref Frames

Format settings, CABAC : Yes

Format settings, Reference frames : 1 frame

Format settings, GOP : M=1, N=30

Codec ID : V_MPEG4/ISO/AVC

Duration : 2 h 3 min

Bit rate : 1 302 kb/s

Width : 1 280 pixels

Height : 720 pixels

Display aspect ratio : 16:9

Frame rate mode : Constant

Frame rate : 25.000 FPS

Color space : YUV

Chroma subsampling : 4:2:0

Bit depth : 8 bits

Scan type : Progressive

Bits/(Pixel*Frame) : 0.057

Stream size : 1.12 GiB (91%)

Title : Encoded By :- Shadow

Default : Yes

Forced : No

Color range : Limited

Color primaries : BT.709

Transfer characteristics : BT.709

Matrix coefficients : BT.709

Audio

ID : 2

Format : AAC LC

Format/Info : Advanced Audio Codec Low Complexity

Codec ID : A_AAC-2

Duration : 2 h 3 min

Bit rate : 128 kb/s

Channel(s) : 2 channels

Channel layout : L R

Sampling rate : 48.0 kHz

Frame rate : 46.875 FPS (1024 SPF)

Compression mode : Lossy

Stream size : 113 MiB (9%)

Title : Encoded By :- Shadow

Language : Hindi

Default : Yes

Forced : No

Mumbai Saga (2021) Hindi 720pDownload Torrent Magnet

#Mumbai #Saga #Hindi #720p