Multiplicity.1996.1080p.BluRa Full Torrent Magnet Download

Download Torrent Multiplicity.1996.1080p.BluRa Movie Full in HD Result. Movie Multiplicity.1996.1080p.BluRa Torrent Download full. Movie Multiplicity.1996.1080p.BluRa torrent Magnet Download Full. Multiplicity.1996.1080p.BluRa Full Movie Torrent Download And Magnet Download For your PC And Mobiles. Latest Movie Multiplicity.1996.1080p.BluRa Download Link In Bottom.

Torrent And Magnet Links Below









Code:

Format : Matroska

Format version : Version 4

File size : 5.24 GiB

Duration : 1 h 57 min

Overall bit rate : 6 397 kb/s

Video
Format : HEVC

Format/Info : High Efficiency Video Coding

Format profile : Main [email protected]@Main

Codec ID : V_MPEGH/ISO/HEVC

Duration : 1 h 57 min

Bit rate : 5 627 kb/s

Width : 1 920 pixels

Height : 800 pixels

Display aspect ratio : 2.40:1

Frame rate mode : Constant

Frame rate : 23.976 (24000/1001) FPS

Color space : YUV

Chroma subsampling : 4:2:0

Bit depth : 10 bits

Bits/(Pixel*Frame) : 0.153

Stream size : 4.61 GiB (88%)

Title : Multiplicity

Writing library : x265 3.0_Au+14-c7e5878bdd31:[Windows][GCC 8.3.0][64 bit] 10bit

Encoding settings : cpuid=1111039 / frame-threads=4 / numa-pools=16 / wpp / no-pmode / no-pme / no-psnr / no-ssim / log-level=2 / input-csp=1 / input-res=1920×800 / interlace=0 / total-frames=168600 / level-idc=0 / high-tier=1 / uhd-bd=0 / ref=4 / no-allow-non-conformance / no-repeat-headers / annexb / no-aud / no-hrd / info / hash=0 / no-temporal-layers / open-gop / min-keyint=23 / keyint=250 / gop-lookahead=0 / bframes=4 / b-adapt=2 / b-pyramid / bframe-bias=0 / rc-lookahead=25 / lookahead-slices=4 / scenecut=40 / radl=0 / no-splice / no-intra-refresh / ctu=64 / min-cu-size=8 / rect / no-amp / max-tu-size=32 / tu-inter-depth=1 / tu-intra-depth=1 / limit-tu=0 / rdoq-level=2 / dynamic-rd=0.00 / no-ssim-rd / signhide / no-tskip / nr-intra=0 / nr-inter=0 / no-constrained-intra / strong-intra-smoothing / max-merge=3 / limit-refs=3 / limit-modes / me=3 / subme=3 / merange=57 / temporal-mvp / weightp / no-weightb / no-analyze-src-pics / deblock=-3:-3 / sao / no-sao-non-deblock / rd=4 / no-early-skip / rskip / no-fast-intra / no-tskip-fast / no-cu-lossless / no-b-intra / no-splitrd-skip / rdpenalty=0 / psy-rd=2.00 / psy-rdoq=1.00 / no-rd-refine / no-lossless / cbqpoffs=0 / crqpoffs=0 / rc=crf / crf=20.0 / qcomp=0.60 / qpstep=4 / stats-write=0 / stats-read=0 / ipratio=1.40 / pbratio=1.30 / aq-mode=3 / aq-strength=1.00 / cutree / zone-count=0 / no-strict-cbr / qg-size=32 / no-rc-grain / qpmax=69 / qpmin=0 / no-const-vbv / sar=0 / overscan=0 / videoformat=5 / range=0 / colorprim=2 / transfer=2 / colormatrix=2 / chromaloc=0 / display-window=0 / max-cll=0,0 / min-luma=0 / max-luma=1023 / log2-max-poc-lsb=8 / vui-timing-info / vui-hrd-info / slices=1 / no-opt-qp-pps / no-opt-ref-list-length-pps / no-multi-pass-opt-rps / scenecut-bias=0.05 / no-opt-cu-delta-qp / no-aq-motion / no-hdr / no-hdr-opt / no-dhdr10-opt / no-idr-recovery-sei / analysis-reuse-level=5 / scale-factor=0 / refine-intra=0 / refine-inter=0 / refine-mv=0 / refine-ctu-distortion=0 / no-limit-sao / ctu-info=0 / no-lowpass-dct / refine-analysis-type=0 / copy-pic=1 / max-ausize-factor=1.0 / no-dynamic-refine / no-single-sei / no-hevc-aq / no-svt / qp-adaptation-range=1.00

Language : English

Default : Yes

Forced : No

Audio
Format : E-AC-3

Format/Info : Enhanced AC-3

Commercial name : Dolby Digital Plus

Codec ID : A_EAC3

Duration : 1 h 57 min

Bit rate mode : Constant

Bit rate : 768 kb/s

Channel(s) : 6 channels

Channel layout : L R C LFE Ls Rs

Sampling rate : 48.0 kHz

Frame rate : 31.250 FPS (1536 SPF)

Compression mode : Lossy

Stream size : 644 MiB (12%)

Title : E-AC-3

Language : English

Service kind : Complete Main

Default : Yes

Forced : No

Text
Format : UTF-8

Codec ID : S_TEXT/UTF8

Codec ID/Info : UTF-8 Plain Text

Duration : 1 h 52 min

Bit rate : 88 b/s

Count of elements : 2239

Stream size : 73.0 KiB (0%)

Title : Full

Language : English

Default : Yes

Forced : No

Menu
00:00:00.000 : :Глава 1

00:10:00.600 : :Глава 2

00:20:01.200 : :Глава 3

00:30:01.798 : :Глава 4

00:40:02.400 : :Глава 5

00:50:03.000 : :Глава 6

01:00:03.599 : :Глава 7

01:10:04.198 : :Глава 8

01:20:04.800 : :Глава 9

01:30:05.399 : :Глава 10

01:40:06.000 : :Глава 11

01:50:06.600 : :Глава 12

01:57:12.024 : :Глава 13

Multiplicity.1996.1080p.BluRaDownload Torrent Magnet

#Multiplicity19961080pBluRa