Mortal.Kombat.2021.HDRip.XviD Full Torrent Magnet Download

Download Torrent Mortal.Kombat.2021.HDRip.XviD Movie Full in HD Result. Movie Mortal.Kombat.2021.HDRip.XviD Torrent Download full. Movie Mortal.Kombat.2021.HDRip.XviD torrent Magnet Download Full. Mortal.Kombat.2021.HDRip.XviD Full Movie Torrent Download And Magnet Download For your PC And Mobiles. Latest Movie Mortal.Kombat.2021.HDRip.XviD Download Link In Bottom.

Torrent And Magnet Links Below

Mortal.Kombat.2021.HDRip.XviD.B4ND1T69

Director: Simon McQuoid

Writers: Greg Russo (screenplay by), Dave Callaham (screenplay by)

Stars: Lewis Tan, Jessica McNamee, Josh Lawson

Plot/Story:

MMA fighter Cole Young seeks out Earth’s greatest champions in order to stand against the enemies of Outworld in a high stakes battle for the universe.

General

Complete name : Mortal.Kombat.2021.HDRip.XviD.B4ND1T69.avi

Format : AVI

Format/Info : Audio Video Interleave

File size : 1 000 MiB

Duration : 1 h 50 min

Overall bit rate : 1 271 kb/s

Subtitles : Yes…Hardcoded for non-English parts + file included(HI)

Video

ID : 0

Format : MPEG-4 Visual

Format profile : Advanced [email protected]
Format settings, BVOP : 2

Format settings, QPel : No

Format settings, GMC : No warppoints

Format settings, Matrix : Default (H.263)

Codec ID : XVID

Codec ID/Hint : XviD

Duration : 1 h 50 min

Bit rate : 1 130 kb/s

Width : 720 pixels

Height : 304 pixels

Display aspect ratio : 2.35:1

Frame rate : 23.976 (24000/1001) FPS

Color space : YUV

Chroma subsampling : 4:2:0

Bit depth : 8 bits

Scan type : Progressive

Compression mode : Lossy

Bits/(Pixel*Frame) : 0.215

Stream size : 889 MiB (89%)

Writing library : XviD 64

Audio

ID : 1

Format : MPEG Audio

Format version : Version 1

Format profile : Layer 3

Codec ID : 55

Codec ID/Hint : MP3

Duration : 1 h 50 min

Bit rate mode : Constant

Bit rate : 128 kb/s

Channel(s) : 2 channels

Sampling rate : 48.0 kHz

Compression mode : Lossy

Stream size : 101 MiB (10%)

Alignment : Aligned on interleaves

Interleave, duration : 24 ms (0.58 video frame)

Screenshots:









Please Seed For As Long As Possible

Or At Least 1:1 Ratio…Thanks

Enjoy Peeps

Mortal.Kombat.2021.HDRip.XviDDownload Torrent Magnet

#MortalKombat2021HDRipXviD