Montage 2013 1080p BluRay DD Full Torrent Magnet Download

Download Torrent Montage 2013 1080p BluRay DD Movie Full in HD Result. Movie Montage 2013 1080p BluRay DD Torrent Download full. Movie Montage 2013 1080p BluRay DD torrent Magnet Download Full. Montage 2013 1080p BluRay DD Full Movie Torrent Download And Magnet Download For your PC And Mobiles. Latest Movie Montage 2013 1080p BluRay DD Download Link In Bottom.

Torrent And Magnet Links Below

This is my first encode any feedback is welcome, thanks

Mediainfo

Code:

General

Unique ID : 243426092303567590669081820758108323566 (0xB72228F876CEE52FEF8D46787A60BEEE)

Complete name : Montage 2013 1080p BluRay DD 5.1 x264-IAMME7.mkv

Format : Matroska

Format version : Version 4 / Version 2

File size : 4.65 GiB

Duration : 1 h 55 min

Overall bit rate : 5 778 kb/s

Movie name : Montage (2013)

Encoded date : UTC 2021-02-23 11:25:51

Writing application : mkvmerge v53.0.0 (‘Fool’s Gold’) 64-bit

Writing library : libebml v1.4.1 + libmatroska v1.6.2

IMDB : tt2969522

TMDB : movie/195276

Video

ID : 1

Format : AVC

Format/Info : Advanced Video Codec

Format profile : [email protected]
Format settings, CABAC : Yes

Format settings, ReFrames : 4 frames

Codec ID : V_MPEG4/ISO/AVC

Duration : 1 h 55 min

Bit rate : 5 136 kb/s

Width : 1 920 pixels

Height : 1 040 pixels

Display aspect ratio : 1.85:1

Frame rate mode : Constant

Frame rate : 25.000 FPS

Color space : YUV

Chroma subsampling : 4:2:0

Bit depth : 8 bits

Scan type : Progressive

Bits/(Pixel*Frame) : 0.103

Stream size : 4.14 GiB (89%)

Writing library : Lavc libx264

Language : Korean

Default : Yes

Forced : No

Audio

ID : 2

Format : AC-3

Format/Info : Audio Coding 3

Mode extension : CM (complete main)

Format settings, Endianness : Big

Codec ID : A_AC3

Duration : 1 h 55 min

Bit rate mode : Constant

Bit rate : 640 kb/s

Channel(s) : 6 channels

Channel positions : Front: L C R, Side: L R, LFE

Sampling rate : 48.0 kHz

Frame rate : 31.250 FPS (1536 spf)

Bit depth : 16 bits

Compression mode : Lossy

Stream size : 528 MiB (11%)

Title : AC3 5.1 Surround @ 640kbps

Language : Korean

Default : Yes

Forced : No

Text

ID : 3

Format : UTF-8

Codec ID : S_TEXT/UTF8

Codec ID/Info : UTF-8 Plain Text

Duration : 1 h 48 min

Bit rate : 39 b/s

Count of elements : 1351

Stream size : 31.4 KiB (0%)

Title : English

Language : English

Default : Yes

Forced : No

Menu

00:00:00.000 : en:Chapter 01

00:05:50.000 : en:Chapter 02

00:14:52.000 : en:Chapter 03

00:24:48.000 : en:Chapter 04

00:37:11.000 : en:Chapter 05

00:46:43.000 : en:Chapter 06

00:59:22.000 : en:Chapter 07

01:06:14.000 : en:Chapter 08

01:13:22.600 : en:Chapter 09

01:18:47.600 : en:Chapter 10

01:31:43.400 : en:Chapter 11

01:43:32.000 : en:Chapter 12

01:51:19.000 : en:Chapter 13

Sources

Code:

Video/Audio: Montage 2013 1080i GER Blu-ray AVC DTS-HD MA 5.1 (22.3 GB)
Sub: Extracted from ARiN’s release

Enjoy, IAMME7

Montage 2013 1080p BluRay DD Download Torrent Magnet

#Montage #1080p #BluRay