MonsterVerse Collection (1976 Full Torrent Magnet Download

Download Torrent MonsterVerse Collection (1976 Movie Full in HD Result. Movie MonsterVerse Collection (1976 Torrent Download full. Movie MonsterVerse Collection (1976 torrent Magnet Download Full. MonsterVerse Collection (1976 Full Movie Torrent Download And Magnet Download For your PC And Mobiles. Latest Movie MonsterVerse Collection (1976 Download Link In Bottom.

Torrent And Magnet Links Below

Prepare For Battle…

MonsterVerse Collection (1976-2019) 1080p 10bit Bluray x265 HEVC [Org DD 5.1 Hindi + DD 5.1 English] MSubs ~ TombDoc

Godzilla (2014) 1080p 10bit Bluray x265 HEVC [Org DD 5.1 Hindi + DD 5.1 English] ESub ~ TombDoc

Code:

Format                                   : Matroska

Format version                           : Version 4

File size                                : 4.39 GiB

Duration                                 : 2 h 3 min

Overall bit rate                         : 5 103 kb/s

Video

ID                                       : 1

Format                                   : HEVC

Format/Info                              : High Efficiency Video Coding

Format profile                           : Main [email protected]@Main

Codec ID                                 : V_MPEGH/ISO/HEVC

Duration                                 : 2 h 3 min

Bit rate                                 : 4 001 kb/s

Width                                    : 1 920 pixels

Height                                   : 800 pixels

Display aspect ratio                     : 2.40:1

Frame rate mode                          : Constant

Frame rate                               : 23.976 (24000/1001) FPS

Color space                              : YUV

Chroma subsampling                       : 4:2:0

Bit depth                                : 10 bits

Bits/(Pixel*Frame)                       : 0.109

Stream size                              : 3.44 GiB (78%)

Default                                  : Yes

Forced                                   : No

Audio #1

ID                                       : 2

Format                                   : E-AC-3

Format/Info                              : Enhanced AC-3

Commercial name                          : Dolby Digital Plus

Codec ID                                 : A_EAC3

Duration                                 : 2 h 3 min

Bit rate mode                            : Constant

Bit rate                                 : 640 kb/s

Channel(s)                               : 6 channels

Channel layout                           : L R C LFE Ls Rs

Sampling rate                            : 48.0 kHz

Frame rate                               : 31.250 FPS (1536 SPF)

Compression mode                         : Lossy

Delay relative to video                  : 2 s 18 ms

Stream size                              : 563 MiB (13%)

Title                                    : Org NF DD+ 5.1 640Kbps ~ TombDoc

Language                                 : Hindi

Service kind                             : Complete Main

Default                                  : Yes

Forced                                   : Yes

Audio #2

ID                                       : 3

Format                                   : E-AC-3

Format/Info                              : Enhanced AC-3

Commercial name                          : Dolby Digital Plus

Codec ID                                 : A_EAC3

Duration                                 : 2 h 3 min

Bit rate mode                            : Constant

Bit rate                                 : 448 kb/s

Channel(s)                               : 6 channels

Channel layout                           : L R C LFE Ls Rs

Sampling rate                            : 48.0 kHz

Frame rate                               : 31.250 FPS (1536 SPF)

Compression mode                         : Lossy

Stream size                              : 395 MiB (9%)

Title                                    : DD+ 5.1 English

Language                                 : English

Service kind                             : Complete Main

Default                                  : No

Forced                                   : No

Text

ID                                       : 4

Format                                   : PGS

Muxing mode                              : zlib

Codec ID                                 : S_HDMV/PGS

Codec ID/Info                            : Picture based subtitle format used on BDs/HD-DVDs

Duration                                 : 2 h 1 min

Bit rate                                 : 28.1 kb/s

Count of elements                        : 2902

Stream size                              : 24.3 MiB (1%)

Title                                    : Eng BD-PGS-SDH

Language                                 : English

Default                                  : No

Forced                                   : No

Menu

00:00:00.000                             : en:Chapter 01

00:09:22.562                             : en:Chapter 02

00:19:03.225                             : en:Chapter 03

00:30:25.532                             : en:Chapter 04

00:39:10.098                             : en:Chapter 05

00:49:43.439                             : en:Chapter 06

00:59:27.189                             : en:Chapter 07

01:09:50.186                             : en:Chapter 08

01:19:11.246                             : en:Chapter 09

01:29:57.267                             : en:Chapter 10

01:40:14.759                             : en:Chapter 11

01:52:14.728                             : en:Chapter 12

01:56:10.088                             : en:Chapter 13

Kong: Skull Island (2017) 1080p 10bit Bluray x265 HEVC [Org DD 5.1 Hindi + DD 5.1 English] MSubs ~ TombDoc

Code:

Format                                   : Matroska

Format version                           : Version 4

File size                                : 4.22 GiB

Duration                                 : 1 h 58 min

Overall bit rate                         : 5 101 kb/s

Video

ID                                       : 1

Format                                   : HEVC

Format/Info                              : High Efficiency Video Coding

Format profile                           : Main [email protected]@Main

Codec ID                                 : V_MPEGH/ISO/HEVC

Duration                                 : 1 h 58 min

Bit rate                                 : 4 000 kb/s

Width                                    : 1 920 pixels

Height                                   : 800 pixels

Display aspect ratio                     : 2.40:1

Frame rate mode                          : Constant

Frame rate                               : 23.976 (24000/1001) FPS

Color space                              : YUV

Chroma subsampling                       : 4:2:0

Bit depth                                : 10 bits

Bits/(Pixel*Frame)                       : 0.109

Stream size                              : 3.31 GiB (78%)

Default                                  : Yes

Forced                                   : No

Audio #1

ID                                       : 2

Format                                   : E-AC-3

Format/Info                              : Enhanced AC-3

Commercial name                          : Dolby Digital Plus

Codec ID                                 : A_EAC3

Duration                                 : 1 h 58 min

Bit rate mode                            : Constant

Bit rate                                 : 640 kb/s

Channel(s)                               : 6 channels

Channel layout                           : L R C LFE Ls Rs

Sampling rate                            : 48.0 kHz

Frame rate                               : 31.250 FPS (1536 SPF)

Compression mode                         : Lossy

Delay relative to video                  : 990 ms

Stream size                              : 542 MiB (13%)

Title                                    : Org Amz DD+ 5.1 640Kbps ~ TombDoc

Language                                 : Hindi

Service kind                             : Complete Main

Default                                  : Yes

Forced                                   : Yes

Audio #2

ID                                       : 3

Format                                   : E-AC-3

Format/Info                              : Enhanced AC-3

Commercial name                          : Dolby Digital Plus

Codec ID                                 : A_EAC3

Duration                                 : 1 h 58 min

Bit rate mode                            : Constant

Bit rate                                 : 448 kb/s

Channel(s)                               : 6 channels

Channel layout                           : L R C LFE Ls Rs

Sampling rate                            : 48.0 kHz

Frame rate                               : 31.250 FPS (1536 SPF)

Compression mode                         : Lossy

Stream size                              : 379 MiB (9%)

Title                                    : DD+ 5.1 English

Language                                 : English

Service kind                             : Complete Main

Default                                  : No

Forced                                   : No

Text #1

ID                                       : 4

Format                                   : PGS

Muxing mode                              : zlib

Codec ID                                 : S_HDMV/PGS

Codec ID/Info                            : Picture based subtitle format used on BDs/HD-DVDs

Duration                                 : 1 h 54 min

Bit rate                                 : 588 b/s

Count of elements                        : 58

Stream size                              : 496 KiB (0%)

Title                                    : Hindi BD-PGS {Forced}

Language                                 : Hindi

Default                                  : Yes

Forced                                   : Yes

Text #2

ID                                       : 5

Format                                   : PGS

Muxing mode                              : zlib

Codec ID                                 : S_HDMV/PGS

Codec ID/Info                            : Picture based subtitle format used on BDs/HD-DVDs

Duration                                 : 1 h 58 min

Bit rate                                 : 33.3 kb/s

Count of elements                        : 3060

Stream size                              : 28.2 MiB (1%)

Title                                    : Eng BD-PGS-SDH

Language                                 : English

Default                                  : No

Forced                                   : No

Text #3

ID                                       : 6

Format                                   : PGS

Muxing mode                              : zlib

Codec ID                                 : S_HDMV/PGS

Codec ID/Info                            : Picture based subtitle format used on BDs/HD-DVDs

Duration                                 : 1 h 54 min

Bit rate                                 : 519 b/s

Count of elements                        : 58

Stream size                              : 437 KiB (0%)

Title                                    : Tamil BD-PGS {Forced}

Language                                 : Tamil

Default                                  : No

Forced                                   : No

Text #4

ID                                       : 7

Format                                   : PGS

Muxing mode                              : zlib

Codec ID                                 : S_HDMV/PGS

Codec ID/Info                            : Picture based subtitle format used on BDs/HD-DVDs

Duration                                 : 1 h 54 min

Bit rate                                 : 381 b/s

Count of elements                        : 58

Stream size                              : 321 KiB (0%)

Title                                    : Telugu BD-PGS {Forced}

Language                                 : Telugu

Default                                  : No

Forced                                   : No

Menu

00:00:00.000                             : en:Chapter 01

00:08:54.743                             : en:Chapter 02

00:19:51.774                             : en:Chapter 03

00:30:01.133                             : en:Chapter 04

00:40:00.106                             : en:Chapter 05

00:50:13.260                             : en:Chapter 06

01:00:49.729                             : en:Chapter 07

01:10:29.600                             : en:Chapter 08

01:18:05.890                             : en:Chapter 09

01:30:12.657                             : en:Chapter 10

01:39:09.026                             : en:Chapter 11

01:47:05.836                             : en:Chapter 12

Godzilla: King of the Monsters (2019) 1080p 10bit Bluray x265 HEVC [Org DD 5.1 Hindi + DD 5.1 English] MSubs ~ TombDoc

Code:

Format                                   : Matroska

Format version                           : Version 4

File size                                : 4.69 GiB

Duration                                 : 2 h 11 min

Overall bit rate                         : 5 099 kb/s

Video

ID                                       : 1

Format                                   : HEVC

Format/Info                              : High Efficiency Video Coding

Format profile                           : Main [email protected]@Main

Codec ID                                 : V_MPEGH/ISO/HEVC

Duration                                 : 2 h 11 min

Bit rate                                 : 3 999 kb/s

Width                                    : 1 920 pixels

Height                                   : 800 pixels

Display aspect ratio                     : 2.40:1

Frame rate mode                          : Constant

Frame rate                               : 23.976 (24000/1001) FPS

Color space                              : YUV

Chroma subsampling                       : 4:2:0

Bit depth                                : 10 bits

Bits/(Pixel*Frame)                       : 0.109

Stream size                              : 3.68 GiB (78%)

Default                                  : Yes

Forced                                   : No

Audio #1

ID                                       : 2

Format                                   : E-AC-3

Format/Info                              : Enhanced AC-3

Commercial name                          : Dolby Digital Plus

Codec ID                                 : A_EAC3

Duration                                 : 2 h 11 min

Bit rate mode                            : Constant

Bit rate                                 : 640 kb/s

Channel(s)                               : 6 channels

Channel layout                           : L R C LFE Ls Rs

Sampling rate                            : 48.0 kHz

Frame rate                               : 31.250 FPS (1536 SPF)

Compression mode                         : Lossy

Delay relative to video                  : 2 s 418 ms

Stream size                              : 603 MiB (13%)

Title                                    : Org Amz DD+ 5.1 640Kbps ~ TombDoc

Language                                 : Hindi

Service kind                             : Complete Main

Default                                  : Yes

Forced                                   : Yes

Audio #2

ID                                       : 3

Format                                   : E-AC-3

Format/Info                              : Enhanced AC-3

Commercial name                          : Dolby Digital Plus

Codec ID                                 : A_EAC3

Duration                                 : 2 h 11 min

Bit rate mode                            : Constant

Bit rate                                 : 448 kb/s

Channel(s)                               : 6 channels

Channel layout                           : L R C LFE Ls Rs

Sampling rate                            : 48.0 kHz

Frame rate                               : 31.250 FPS (1536 SPF)

Compression mode                         : Lossy

Stream size                              : 422 MiB (9%)

Title                                    : DD+ 5.1 English

Language                                 : English

Service kind                             : Complete Main

Default                                  : No

Forced                                   : No

Text #1

ID                                       : 4

Format                                   : PGS

Muxing mode                              : zlib

Codec ID                                 : S_HDMV/PGS

Codec ID/Info                            : Picture based subtitle format used on BDs/HD-DVDs

Duration                                 : 2 h 9 min

Bit rate                                 : 1 026 b/s

Count of elements                        : 106

Stream size                              : 976 KiB (0%)

Title                                    : Hindi BD-PGS {Forced}

Language                                 : Hindi

Default                                  : Yes

Forced                                   : Yes

Text #2

ID                                       : 5

Format                                   : PGS

Muxing mode                              : zlib

Codec ID                                 : S_HDMV/PGS

Codec ID/Info                            : Picture based subtitle format used on BDs/HD-DVDs

Duration                                 : 2 h 11 min

Bit rate                                 : 33.0 kb/s

Count of elements                        : 3322

Stream size                              : 31.0 MiB (1%)

Title                                    : Eng BD-PGS-SDH

Language                                 : English

Default                                  : No

Forced                                   : No

Text #3

ID                                       : 6

Format                                   : PGS

Muxing mode                              : zlib

Codec ID                                 : S_HDMV/PGS

Codec ID/Info                            : Picture based subtitle format used on BDs/HD-DVDs

Duration                                 : 2 h 9 min

Bit rate                                 : 1 318 b/s

Count of elements                        : 104

Stream size                              : 1.22 MiB (0%)

Title                                    : Tamil BD-PGS {Forced}

Language                                 : Tamil

Default                                  : No

Forced                                   : No

Text #4

ID                                       : 7

Format                                   : PGS

Muxing mode                              : zlib

Codec ID                                 : S_HDMV/PGS

Codec ID/Info                            : Picture based subtitle format used on BDs/HD-DVDs

Duration                                 : 2 h 9 min

Bit rate                                 : 1 162 b/s

Count of elements                        : 110

Stream size                              : 1.08 MiB (0%)

Title                                    : Telugu BD-PGS {Forced}

Language                                 : Telugu

Default                                  : No

Forced                                   : No

Menu

00:00:00.000                             : en:Chapter 01

00:10:53.903                             : en:Chapter 02

00:18:06.836                             : en:Chapter 03

00:30:27.325                             : en:Chapter 04

00:45:18.633                             : en:Chapter 05

00:54:11.039                             : en:Chapter 06

01:05:41.646                             : en:Chapter 07

01:09:31.584                             : en:Chapter 08

01:19:31.308                             : en:Chapter 09

01:30:06.234                             : en:Chapter 10

01:38:36.869                             : en:Chapter 11

01:49:58.884                             : en:Chapter 12

01:59:28.828                             : en:Chapter 13

Godzilla (1998) 4K Remastered 1080p 10bit Bluray x265 HEVC [Org UHD BD 5.1 Hindi + DD 5.1 English] MSubs ~ TombDoc

Code:

Format                                   : Matroska

Format version                           : Version 4

File size                                : 4.96 GiB

Duration                                 : 2 h 18 min

Overall bit rate                         : 5 120 kb/s

Video

ID                                       : 1

Format                                   : HEVC

Format/Info                              : High Efficiency Video Coding

Format profile                           : Main [email protected]@Main

Codec ID                                 : V_MPEGH/ISO/HEVC

Duration                                 : 2 h 18 min

Bit rate                                 : 4 001 kb/s

Width                                    : 1 920 pixels

Height                                   : 804 pixels

Display aspect ratio                     : 2.40:1

Frame rate mode                          : Constant

Frame rate                               : 23.976 (24000/1001) FPS

Color space                              : YUV

Chroma subsampling                       : 4:2:0

Bit depth                                : 10 bits

Bits/(Pixel*Frame)                       : 0.108

Stream size                              : 3.88 GiB (78%)

Default                                  : Yes

Forced                                   : No

Audio #1

ID                                       : 2

Format                                   : AC-3

Format/Info                              : Audio Coding 3

Commercial name                          : Dolby Digital

Codec ID                                 : A_AC3

Duration                                 : 2 h 18 min

Bit rate mode                            : Constant

Bit rate                                 : 640 kb/s

Channel(s)                               : 6 channels

Channel layout                           : L R C LFE Ls Rs

Sampling rate                            : 48.0 kHz

Frame rate                               : 31.250 FPS (1536 SPF)

Compression mode                         : Lossy

Delay relative to video                  : 38 ms

Stream size                              : 635 MiB (13%)

Title                                    : Org UHD BD 5.1 640Kbps ~ TombDoc

Language                                 : Hindi

Service kind                             : Complete Main

Default                                  : Yes

Forced                                   : Yes

Audio #2

ID                                       : 3

Format                                   : E-AC-3

Format/Info                              : Enhanced AC-3

Commercial name                          : Dolby Digital Plus

Codec ID                                 : A_EAC3

Duration                                 : 2 h 18 min

Bit rate mode                            : Constant

Bit rate                                 : 448 kb/s

Channel(s)                               : 6 channels

Channel layout                           : L R C LFE Ls Rs

Sampling rate                            : 48.0 kHz

Frame rate                               : 31.250 FPS (1536 SPF)

Compression mode                         : Lossy

Stream size                              : 445 MiB (9%)

Title                                    : DD+ 5.1 English

Language                                 : English

Service kind                             : Complete Main

Default                                  : No

Forced                                   : No

Text #1

ID                                       : 4

Format                                   : PGS

Muxing mode                              : zlib

Codec ID                                 : S_HDMV/PGS

Codec ID/Info                            : Picture based subtitle format used on BDs/HD-DVDs

Duration                                 : 2 h 8 min

Bit rate                                 : 12.4 kb/s

Count of elements                        : 1696

Stream size                              : 11.4 MiB (0%)

Title                                    : Hindi BD-PGS

Language                                 : Hindi

Default                                  : Yes

Forced                                   : Yes

Text #2

ID                                       : 5

Format                                   : PGS

Muxing mode                              : zlib

Codec ID                                 : S_HDMV/PGS

Codec ID/Info                            : Picture based subtitle format used on BDs/HD-DVDs

Duration                                 : 1 h 23 min

Bit rate                                 : 448 b/s

Count of elements                        : 36

Stream size                              : 273 KiB (0%)

Title                                    : Eng BD-PGS {Forced}

Language                                 : English

Default                                  : No

Forced                                   : No

Text #3

ID                                       : 6

Format                                   : PGS

Muxing mode                              : zlib

Codec ID                                 : S_HDMV/PGS

Codec ID/Info                            : Picture based subtitle format used on BDs/HD-DVDs

Duration                                 : 2 h 1 min

Bit rate                                 : 27.7 kb/s

Count of elements                        : 2344

Stream size                              : 24.1 MiB (0%)

Title                                    : Eng BD-PGS

Language                                 : English

Default                                  : No

Forced                                   : No

Text #4

ID                                       : 7

Format                                   : PGS

Muxing mode                              : zlib

Codec ID                                 : S_HDMV/PGS

Codec ID/Info                            : Picture based subtitle format used on BDs/HD-DVDs

Duration                                 : 2 h 17 min

Bit rate                                 : 30.2 kb/s

Count of elements                        : 3142

Stream size                              : 29.7 MiB (1%)

Title                                    : Eng BD-PGS-SDH

Language                                 : English

Default                                  : No

Forced                                   : No

Menu

00:00:00.000                             : en:00:00:00.000

00:07:48.426                             : en:00:07:48.426

00:17:25.461                             : en:00:17:25.461

00:25:28.235                             : en:00:25:28.235

00:36:53.837                             : en:00:36:53.837

00:41:48.214                             : en:00:41:48.214

00:48:19.730                             : en:00:48:19.730

01:01:35.942                             : en:01:01:35.942

01:11:06.095                             : en:01:11:06.095

01:21:38.685                             : en:01:21:38.685

01:30:26.212                             : en:01:30:26.212

01:39:14.157                             : en:01:39:14.157

01:50:24.159                             : en:01:50:24.159

01:52:28.659                             : en:01:52:28.659

02:00:36.771                             : en:02:00:36.771

02:05:56.883                             : en:02:05:56.883

King Kong (2005) Extended 1080p 10bit Bluray x265 HEVC [Org DD 5.1 Hindi + DD 5.1 English] ESubs ~ TombDoc

Code:

Format                                   : Matroska

Format version                           : Version 4

File size                                : 7.16 GiB

Duration                                 : 3 h 20 min

Overall bit rate                         : 5 125 kb/s

Video

ID                                       : 1

Format                                   : HEVC

Format/Info                              : High Efficiency Video Coding

Format profile                           : Main [email protected]@Main

Codec ID                                 : V_MPEGH/ISO/HEVC

Duration                                 : 3 h 20 min

Bit rate                                 : 4 000 kb/s

Width                                    : 1 920 pixels

Height                                   : 816 pixels

Display aspect ratio                     : 2.35:1

Frame rate mode                          : Constant

Frame rate                               : 23.976 (24000/1001) FPS

Color space                              : YUV

Chroma subsampling                       : 4:2:0

Bit depth                                : 10 bits

Bits/(Pixel*Frame)                       : 0.106

Stream size                              : 5.59 GiB (78%)

Default                                  : Yes

Forced                                   : No

Audio #1

ID                                       : 2

Format                                   : AC-3

Format/Info                              : Audio Coding 3

Commercial name                          : Dolby Digital

Codec ID                                 : A_AC3

Duration                                 : 3 h 20 min

Bit rate mode                            : Constant

Bit rate                                 : 640 kb/s

Channel(s)                               : 6 channels

Channel layout                           : L R C LFE Ls Rs

Sampling rate                            : 48.0 kHz

Frame rate                               : 31.250 FPS (1536 SPF)

Compression mode                         : Lossy

Stream size                              : 916 MiB (12%)

Title                                    : Org Amz Ext. DD 5.1 640Kbps ~ TombDoc

Language                                 : Hindi

Service kind                             : Complete Main

Default                                  : Yes

Forced                                   : Yes

Audio #2

ID                                       : 3

Format                                   : E-AC-3

Format/Info                              : Enhanced AC-3

Commercial name                          : Dolby Digital Plus

Codec ID                                 : A_EAC3

Duration                                 : 3 h 20 min

Bit rate mode                            : Constant

Bit rate                                 : 448 kb/s

Channel(s)                               : 6 channels

Channel layout                           : L R C LFE Ls Rs

Sampling rate                            : 48.0 kHz

Frame rate                               : 31.250 FPS (1536 SPF)

Compression mode                         : Lossy

Stream size                              : 641 MiB (9%)

Title                                    : DD+ 5.1 English

Language                                 : English

Service kind                             : Complete Main

Default                                  : No

Forced                                   : No

Text #1

ID                                       : 4

Format                                   : PGS

Muxing mode                              : zlib

Codec ID                                 : S_HDMV/PGS

Codec ID/Info                            : Picture based subtitle format used on BDs/HD-DVDs

Duration                                 : 3 h 13 min

Bit rate                                 : 21.1 kb/s

Count of elements                        : 3420

Stream size                              : 29.2 MiB (0%)

Title                                    : Eng BD-PGS-SDH

Language                                 : English

Default                                  : No

Forced                                   : No

Text #2

ID                                       : 5

Format                                   : PGS

Muxing mode                              : zlib

Codec ID                                 : S_HDMV/PGS

Codec ID/Info                            : Picture based subtitle format used on BDs/HD-DVDs

Duration                                 : 3 h 19 min

Bit rate                                 : 82.9 kb/s

Count of elements                        : 7194

Stream size                              : 118 MiB (2%)

Title                                    : Commentary

Language                                 : English

Default                                  : No

Forced                                   : No

Text #3

ID                                       : 6

Format                                   : PGS

Muxing mode                              : zlib

Codec ID                                 : S_HDMV/PGS

Codec ID/Info                            : Picture based subtitle format used on BDs/HD-DVDs

Duration                                 : 3 h 13 min

Bit rate                                 : 16.9 kb/s

Count of elements                        : 1465

Stream size                              : 23.3 MiB (0%)

Title                                    : Commentary 2

Language                                 : English

Default                                  : No

Forced                                   : No

Menu

00:00:00.000                             : en:Chapter 01

00:03:02.808                             : en:Chapter 02

00:04:20.802                             : en:Chapter 03

00:06:43.945                             : en:Chapter 04

00:10:29.671                             : en:Chapter 05

00:12:33.211                             : en:Chapter 06

00:14:18.399                             : en:Chapter 07

00:17:40.893                             : en:Chapter 08

00:20:25.850                             : en:Chapter 09

00:24:13.285                             : en:Chapter 10

00:25:55.637                             : en:Chapter 11

00:26:13.363                             : en:Chapter 12

00:28:00.637                             : en:Chapter 13

00:30:29.536                             : en:Chapter 14

00:31:07.449                             : en:Chapter 15

00:33:07.360                             : en:Chapter 16

00:34:14.511                             : en:Chapter 17

00:36:55.880                             : en:Chapter 18

00:39:45.675                             : en:Chapter 19

00:41:07.507                             : en:Chapter 20

00:42:31.716                             : en:Chapter 21

00:43:45.873                             : en:Chapter 22

00:52:20.179                             : en:Chapter 23

00:55:49.930                             : en:Chapter 24

01:02:07.265                             : en:Chapter 25

01:07:32.799                             : en:Chapter 26

01:12:39.480                             : en:Chapter 27

01:14:14.659                             : en:Chapter 28

01:16:58.948                             : en:Chapter 29

01:20:23.485                             : en:Chapter 30

01:22:42.166                             : en:Chapter 31

01:29:20.522                             : en:Chapter 32

01:30:16.578                             : en:Chapter 33

01:32:09.816                             : en:Chapter 34

01:38:55.346                             : en:Chapter 35

01:44:44.111                             : en:Chapter 36

01:46:17.955                             : en:Chapter 37

01:50:02.012                             : en:Chapter 38

02:01:41.252                             : en:Chapter 39

02:09:08.658                             : en:Chapter 40

02:13:18.991                             : en:Chapter 41

02:15:51.477                             : en:Chapter 42

02:21:36.029                             : en:Chapter 43

02:30:16.507                             : en:Chapter 44

02:32:11.706                             : en:Chapter 45

02:34:02.149                             : en:Chapter 46

02:43:14.785                             : en:Chapter 47

02:47:50.560                             : en:Chapter 48

02:52:23.875                             : en:Chapter 49

02:54:05.268                             : en:Chapter 50

02:56:23.990                             : en:Chapter 51

03:03:57.485                             : en:Chapter 52

03:10:36.049                             : en:Chapter 53

King Kong (1976) 1080p 10bit Bluray x265 HEVC [HDTV DD+ 2.0 Hindi + DD 5.1 English] ESub ~ TombDoc

Code:

Format                                   : Matroska

Format version                           : Version 4

File size                                : 4.34 GiB

Duration                                 : 2 h 14 min

Overall bit rate                         : 4 618 kb/s

Video

ID                                       : 1

Format                                   : HEVC

Format/Info                              : High Efficiency Video Coding

Format profile                           : Main [email protected]@Main

Codec ID                                 : V_MPEGH/ISO/HEVC

Duration                                 : 2 h 14 min

Bit rate                                 : 4 000 kb/s

Width                                    : 1 920 pixels

Height                                   : 820 pixels

Display aspect ratio                     : 2.35:1

Frame rate mode                          : Constant

Frame rate                               : 23.976 (24000/1001) FPS

Color space                              : YUV

Chroma subsampling                       : 4:2:0

Bit depth                                : 10 bits

Bits/(Pixel*Frame)                       : 0.106

Stream size                              : 3.76 GiB (87%)

Default                                  : Yes

Forced                                   : No

Audio #1

ID                                       : 2

Format                                   : E-AC-3

Format/Info                              : Enhanced AC-3

Commercial name                          : Dolby Digital Plus

Codec ID                                 : A_EAC3

Duration                                 : 2 h 14 min

Bit rate mode                            : Constant

Bit rate                                 : 224 kb/s

Channel(s)                               : 2 channels

Channel layout                           : L R

Sampling rate                            : 48.0 kHz

Frame rate                               : 31.250 FPS (1536 SPF)

Compression mode                         : Lossy

Stream size                              : 215 MiB (5%)

Title                                    : Org HDTV DD+ 2.0 224Kbps ~ TombDoc

Language                                 : Hindi

Service kind                             : Complete Main

Default                                  : Yes

Forced                                   : Yes

Audio #2

ID                                       : 3

Format                                   : AC-3

Format/Info                              : Audio Coding 3

Commercial name                          : Dolby Digital

Codec ID                                 : A_AC3

Duration                                 : 2 h 14 min

Bit rate mode                            : Constant

Bit rate                                 : 384 kb/s

Channel(s)                               : 6 channels

Channel layout                           : L R C LFE Ls Rs

Sampling rate                            : 48.0 kHz

Frame rate                               : 31.250 FPS (1536 SPF)

Compression mode                         : Lossy

Stream size                              : 369 MiB (8%)

Title                                    : DD 5.1 English

Language                                 : English

Service kind                             : Complete Main

Default                                  : No

Forced                                   : No

Text

ID                                       : 4

Format                                   : PGS

Muxing mode                              : zlib

Codec ID                                 : S_HDMV/PGS

Codec ID/Info                            : Picture based subtitle format used on BDs/HD-DVDs

Duration                                 : 2 h 10 min

Bit rate                                 : 18.1 kb/s

Count of elements                        : 1184

Stream size                              : 17.0 MiB (0%)

Title                                    : Eng BD-PGS

Language                                 : English

Default                                  : Yes

Forced                                   : Yes

Menu

00:00:00.000                             : en:Chapter 01

00:05:25.992                             : en:Chapter 02

00:14:06.596                             : en:Chapter 03

00:22:32.434                             : en:Chapter 04

00:33:44.981                             : en:Chapter 05

00:45:59.423                             : en:Chapter 06

00:57:39.164                             : en:Chapter 07

01:10:34.480                             : en:Chapter 08

01:16:07.980                             : en:Chapter 09

01:30:37.057                             : en:Chapter 10

01:41:59.989                             : en:Chapter 11

01:53:54.369                             : en:Chapter 12

02:12:10.881                             : en:Chapter 13

Code:

Source: MonsterVerse:

-Godzilla 2014 1080p CEE Blu-ray AVC DTS-HD MA 7.1-HDCLUB

-Kong: Skull Island 2017 1080p EUR Blu-ray AVC TrueHD 7.1-HDCLUB

-Godzilla: King of the Monsters 2019 1080p EUR Blu-ray AVC Atmos 7.1-BLUEBIRD

Standalone Films:

-Godzilla 1998 1080p 4K Master Blu-ray Remux AVC DTS-HD MA 5.1 – KRaLiMaRKo

–Godzilla 1998 2160p UHD Blu-ray HEVC Atmos-TERMiNAL

-King Kong 2005 2in1 1080p EUR Blu-ray VC-1 DTS-HD MA [email protected]
-King Kong 1976 1080p AUS Blu-ray AVC DTS-HD MA 5.1-CultFilms™
King Kong 2005 Ext. Hindi Audio Synced By Peter & King Kong 1976 Some Uncut Scenes Fixed By ReaperZa {Thanks}

Note: All movies are Newly Encoded.. EnjOyY the FiNal Quality…

MonsterVerse Collection (1976Download Torrent Magnet

#MonsterVerse #Collection