Monster Hunter (2020) 720p BR Full Torrent Magnet Download

Download Torrent Monster Hunter (2020) 720p BR Movie Full in HD Result. Movie Monster Hunter (2020) 720p BR Torrent Download full. Movie Monster Hunter (2020) 720p BR torrent Magnet Download Full. Monster Hunter (2020) 720p BR Full Movie Torrent Download And Magnet Download For your PC And Mobiles. Latest Movie Monster Hunter (2020) 720p BR Download Link In Bottom.

Torrent And Magnet Links Below

Monster Hunter (2020):

When Lt. Artemis and her loyal soldiers are transported to a new world, they engage in a desperate battle
for survival against enormous enemies with incredible powers. Feature film based on the video game by Capcom.

Director: Paul W.S. Anderson

Cast: Milla Jovovich, Tony Jaa, Ron Perlman.

Format : Matroska
Format version : Version 4
File size : 989 MiB
Duration : 1 h 43 min
Overall bit rate : 1 341 kb/s

Video
ID : 1
Format : AVC
Format/Info : Advanced Video Codec
Format profile : [email protected]
Format settings : CABAC / 4 Ref Frames
Format settings, CABAC : Yes
Format settings, Reference frames : 4 frames
Codec ID : V_MPEG4/ISO/AVC
Duration : 1 h 43 min
Bit rate : 1 150 kb/s
Width : 1 280 pixels
Height : 534 pixels

Audio #1
ID : 2
Format : AAC LC SBR
Format/Info : Advanced Audio Codec Low Complexity with Spectral Band Replication
Commercial name : HE-AAC
Format settings : Explicit
Codec ID : A_AAC-2
Duration : 1 h 43 min
Bit rate : 96.0 kb/s
Channel(s) : 2 channels
Channel layout : L R
Sampling rate : 48.0 kHz
Frame rate : 23.438 FPS (2048 SPF)
Compression mode : Lossy
Delay relative to video : -21 ms
Stream size : 69.9 MiB (7%)
Language : Hindi
Default : Yes
Forced : Yes

Audio #2
ID : 3
Format : AAC LC SBR
Format/Info : Advanced Audio Codec Low Complexity with Spectral Band Replication
Commercial name : HE-AAC
Format settings : Explicit
Codec ID : A_AAC-2
Duration : 1 h 43 min
Bit rate : 96.0 kb/s
Channel(s) : 2 channels
Channel layout : L R
Sampling rate : 48.0 kHz
Frame rate : 23.438 FPS (2048 SPF)
Compression mode : Lossy
Delay relative to video : -21 ms
Stream size : 69.9 MiB (7%)
Language : English
Default : No
Forced : No

Text
ID : 4
Format : UTF-8
Codec ID : S_TEXT/UTF8
Codec ID/Info : UTF-8 Plain Text
Duration : 1 h 29 min
Bit rate : 19 b/s
Count of elements : 499
Stream size : 12.7 KiB (0%)
Language : English

Monster Hunter (2020) 720p BRDownload Torrent Magnet

#Monster #Hunter #720p