Monster Hunter (2020) 1080p x Full Torrent Magnet Download

Download Torrent Monster Hunter (2020) 1080p x Movie Full in HD Result. Movie Monster Hunter (2020) 1080p x Torrent Download full. Movie Monster Hunter (2020) 1080p x torrent Magnet Download Full. Monster Hunter (2020) 1080p x Full Movie Torrent Download And Magnet Download For your PC And Mobiles. Latest Movie Monster Hunter (2020) 1080p x Download Link In Bottom.

Torrent And Magnet Links Below

My encode for my collection. Enjoy! Because of ISP bandwidth limits, I can only seed for about 24 hours or so. In that time I try to get as many copies completed as possible so that the seeding can be taken over by you… so please seed when finished and I’ll continue to provide high quality encodes!

I would love to provide you guys with all my own encodes. A seedbox would enable me to do so… so if anyone wants to donate a bit (every little bit would help) to one of my bitcoin wallets, I will set one up and become a regular uploader on here. My home server is maxed and I cannot seed for more than 24hrs and my upload speeds are limited compared to what a $50/month seedbox would allow.

bitcoincash:qrg6gntwh6krhw90k8jhmyt326vmcxulduxpjj24pl

bitcoin:1L7V42eUv6y3UwyK24x4RsBk7xF4aVgmmu

Format                                   : Matroska

Format version                           : Version 4

File size                                : 2.26 GiB

Duration                                 : 1 h 43 min

Overall bit rate                         : 3 139 kb/s

Encoded date                             : UTC 2021-02-17 06:26:14

Writing application                      : HandBrake 1.3.3 2020061300

Writing library                          : Lavf58.29.100

ErrorDetectionType                       : Per level 1

Video

ID                                       : 1

Format                                   : HEVC

Format/Info                              : High Efficiency Video Coding

Format profile                           : Main [email protected]@High

Codec ID                                 : V_MPEGH/ISO/HEVC

Duration                                 : 1 h 43 min

Bit rate                                 : 2 693 kb/s

Width                                    : 1 920 pixels

Height                                   : 804 pixels

Display aspect ratio                     : 2.40:1

Frame rate mode                          : Constant

Frame rate                               : 23.976 (24000/1001) FPS

Color space                              : YUV

Chroma subsampling                       : 4:2:0

Bit depth                                : 10 bits

Bits/(Pixel*Frame)                       : 0.073

Stream size                              : 1.94 GiB (86%)

Default                                  : Yes

Forced                                   : No

Color range                              : Limited

Color primaries                          : BT.709

Transfer characteristics                 : BT.709

Matrix coefficients                      : BT.709

Audio

ID                                       : 2

Format                                   : AC-3

Format/Info                              : Audio Coding 3

Commercial name                          : Dolby Digital

Codec ID                                 : A_AC3

Duration                                 : 1 h 43 min

Bit rate mode                            : Constant

Bit rate                                 : 384 kb/s

Channel(s)                               : 6 channels

Channel layout                           : L R C LFE Ls Rs

Sampling rate                            : 48.0 kHz

Frame rate                               : 31.250 FPS (1536 SPF)

Compression mode                         : Lossy

Stream size                              : 283 MiB (12%)

Title                                    : Surround

Language                                 : English

Service kind                             : Complete Main

Default                                  : Yes

Forced                                   : No

Text

ID                                       : 3

Format                                   : ASS

Codec ID                                 : S_TEXT/ASS

Codec ID/Info                            : Advanced Sub Station Alpha

Duration                                 : 1 h 35 min

Compression mode                         : Lossless

Language                                 : English

Default                                  : No

Forced                                   : No

Monster Hunter (2020) 1080p xDownload Torrent Magnet

#Monster #Hunter #1080p