Monster.Hunter.2020.1080p.Blu Full Torrent Magnet Download

Download Torrent Monster.Hunter.2020.1080p.Blu Movie Full in HD Result. Movie Monster.Hunter.2020.1080p.Blu Torrent Download full. Movie Monster.Hunter.2020.1080p.Blu torrent Magnet Download Full. Monster.Hunter.2020.1080p.Blu Full Movie Torrent Download And Magnet Download For your PC And Mobiles. Latest Movie Monster.Hunter.2020.1080p.Blu Download Link In Bottom.

Torrent And Magnet Links Below

Monster.Hunter.2020.1080p.BluRay.[Org.DDP2.0-Hindi+DDP5.1-English].MSubs.HEVC~The.PunisheR.mkv

MediaInfo:
Unique ID : 140288430525935769704889572538347447714 (0x698A91A4BF626A9957504F370EC465A2)

Complete name : Monster.Hunter.2020.1080p.BluRay.[Org.DDP2.0-Hindi+DDP5.1-English].MSubs.HEVC~The.PunisheR.mkv

Format : Matroska

Format version : Version 4

File size : 2.88 GiB

Duration : 1 h 43 min

Overall bit rate : 3 837 kb/s

Description : Encoded By – The.PunisheR

Encoded date : UTC 2021-03-25 11:08:04

Writing application : mkvmerge v55.0.0 (‘Waiting For Space’) 64-bit

Writing library : libebml v1.4.2 + libmatroska v1.6.4 / Lavf57.83.100

Video

ID : 1

Format : HEVC

Format/Info : High Efficiency Video Coding

Format profile : [email protected]@Main

Codec ID : V_MPEGH/ISO/HEVC

Duration : 1 h 43 min

Bit rate : 2 932 kb/s

Width : 1 920 pixels

Height : 804 pixels

Display aspect ratio : 2.40:1

Frame rate mode : Constant

Frame rate : 23.976 (24000/1001) FPS

Color space : YUV

Chroma subsampling : 4:2:0

Bit depth : 8 bits

Bits/(Pixel*Frame) : 0.079

Stream size : 2.11 GiB (73%)

Title : 1080p / 8bit / BluRay / HEVC ~ The.PunisheR

Language : English

Default : Yes

Forced : No

Color range : Limited

Color primaries : BT.709

Transfer characteristics : BT.709

Matrix coefficients : BT.709

Audio #1

ID : 2

Format : E-AC-3

Format/Info : Enhanced AC-3

Commercial name : Dolby Digital Plus

Codec ID : A_EAC3

Duration : 1 h 47 min

Bit rate mode : Constant

Bit rate : 384 kb/s

Channel(s) : 2 channels

Channel layout : L R

Sampling rate : 48.0 kHz

Frame rate : 31.250 FPS (1536 SPF)

Compression mode : Lossy

Stream size : 295 MiB (10%)

Title : Org. BMS / DD+2.0 / 384kbps / 48kHz ~ The.PunisheR

Language : Hindi

Service kind : Complete Main

Default : Yes

Forced : Yes

Audio #2

ID : 3

Format : E-AC-3

Format/Info : Enhanced AC-3

Commercial name : Dolby Digital Plus

Codec ID : A_EAC3

Duration : 1 h 43 min

Bit rate mode : Constant

Bit rate : 640 kb/s

Channel(s) : 6 channels

Channel layout : L R C LFE Ls Rs

Sampling rate : 48.0 kHz

Frame rate : 31.250 FPS (1536 SPF)

Compression mode : Lossy

Stream size : 472 MiB (16%)

Title : DD+ 5.1 / 640kbps / 48kHz ~ The.PunisheR

Language : English

Service kind : Complete Main

Default : No

Forced : No

Text #1

ID : 4

ID in the original source medium : 4608 (0x1200)

Format : PGS

Muxing mode : zlib

Codec ID : S_HDMV/PGS

Codec ID/Info : Picture based subtitle format used on BDs/HD-DVDs

Duration : 1 h 35 min

Bit rate : 17.3 kb/s

Count of elements : 1637

Stream size : 11.8 MiB (0%)

Title : English-PGS

Language : English

Default : No

Forced : No

Original source medium : Blu-ray

Text #2

ID : 5

ID in the original source medium : 4609 (0x1201)

Format : PGS

Muxing mode : zlib

Codec ID : S_HDMV/PGS

Codec ID/Info : Picture based subtitle format used on BDs/HD-DVDs

Duration : 1 h 29 min

Bit rate : 11.5 kb/s

Count of elements : 944

Stream size : 7.40 MiB (0%)

Title : English-SDH-PGS

Language : English

Default : No

Forced : No

Original source medium : Blu-ray

Text #3

ID : 6

ID in the original source medium : 4610 (0x1202)

Format : PGS

Muxing mode : zlib

Codec ID : S_HDMV/PGS

Codec ID/Info : Picture based subtitle format used on BDs/HD-DVDs

Duration : 1 h 41 min

Bit rate : 8 781 b/s

Count of elements : 900

Stream size : 6.39 MiB (0%)

Title : French-PGS

Language : French

Default : No

Forced : No

Original source medium : Blu-ray

Text #4

ID : 7

ID in the original source medium : 4611 (0x1203)

Format : PGS

Muxing mode : zlib

Codec ID : S_HDMV/PGS

Codec ID/Info : Picture based subtitle format used on BDs/HD-DVDs

Duration : 1 h 41 min

Bit rate : 9 544 b/s

Count of elements : 914

Stream size : 6.94 MiB (0%)

Title : Spanish-PGS

Language : Spanish

Default : No

Forced : No

Original source medium : Blu-ray

Text #5

ID : 8

ID in the original source medium : 4611 (0x1203)

Format : PGS

Muxing mode : zlib

Codec ID : S_HDMV/PGS

Codec ID/Info : Picture based subtitle format used on BDs/HD-DVDs

Duration : 1 h 41 min

Bit rate : 371 b/s

Count of elements : 24

Stream size : 277 KiB (0%)

Title : Spanish-FORCED-PGS

Language : Spanish

Default : No

Forced : No

Original source medium : Blu-ray

Text #6

ID : 9

ID in the original source medium : 4612 (0x1204)

Format : PGS

Muxing mode : zlib

Codec ID : S_HDMV/PGS

Codec ID/Info : Picture based subtitle format used on BDs/HD-DVDs

Duration : 1 h 41 min

Bit rate : 243 b/s

Count of elements : 14

Stream size : 181 KiB (0%)

Title : French-FORCED-PGS

Language : French

Default : No

Forced : No

Original source medium : Blu-ray

Text #7

ID : 10

ID in the original source medium : 4612 (0x1204)

Format : PGS

Muxing mode : zlib

Codec ID : S_HDMV/PGS

Codec ID/Info : Picture based subtitle format used on BDs/HD-DVDs

Duration : 1 h 41 min

Bit rate : 243 b/s

Count of elements : 14

Stream size : 181 KiB (0%)

Title : French-FORCED-PGS

Language : French

Default : No

Forced : No

Original source medium : Blu-ray

Menu

00:00:00.000 : :Chapter 1

00:05:00.300 : :Chapter 2

00:10:28.962 : :Chapter 3

00:15:27.593 : :Chapter 4

00:21:14.607 : :Chapter 5

00:24:54.827 : :Chapter 6

00:31:53.578 : :Chapter 7

00:35:58.823 : :Chapter 8

00:41:10.802 : :Chapter 9

00:48:06.217 : :Chapter 10

00:54:11.582 : :Chapter 11

01:01:37.027 : :Chapter 12

01:06:18.975 : :Chapter 13

01:13:22.732 : :Chapter 14

01:23:01.643 : :Chapter 15

01:31:22.143 : :Chapter 16

Screenshots:



Code:

Source: Monster.Hunter.2020.1080p.BluRay.REMUX.AVC.DTS-HD.MA.TrueHD.7.1.Atmos-FGT.mkv

Monster.Hunter.2020.1080p.BluDownload Torrent Magnet

#MonsterHunter20201080pBlu