Monster Hunter 2020 1080p 10b Full Torrent Magnet Download

Download Torrent Monster Hunter 2020 1080p 10b Movie Full in HD Result. Movie Monster Hunter 2020 1080p 10b Torrent Download full. Movie Monster Hunter 2020 1080p 10b torrent Magnet Download Full. Monster Hunter 2020 1080p 10b Full Movie Torrent Download And Magnet Download For your PC And Mobiles. Latest Movie Monster Hunter 2020 1080p 10b Download Link In Bottom.

Torrent And Magnet Links Below



General

Unique ID                                : 229276771903766887560539467218352388043 (0xAC7D199D4852B3007356D29D0AFCB7CB)

Complete name                            : F:EncodeMonster Hunter 2020 1080p 10bit BluRay English AAC 5.1 x265 HEVC – MoviePirate – Telly.mkv

Format                                   : Matroska

Format version                           : Version 4

File size                                : 1.89 GiB

Duration                                 : 1 h 43 min

Overall bit rate                         : 2 629 kb/s

Movie name                               : Telly

Encoded date                             : UTC 2021-02-19 08:51:32

Writing application                      : mkvmerge v39.0.0 (‘In The Waiting Line’) 64-bit

Writing library                          : libebml v1.3.9 + libmatroska v1.5.2

Video

ID                                       : 1

Format                                   : HEVC

Format/Info                              : High Efficiency Video Coding

Format profile                           : Main [email protected]@Main

Codec ID                                 : V_MPEGH/ISO/HEVC

Duration                                 : 1 h 43 min

Bit rate                                 : 2 371 kb/s

Width                                    : 1 920 pixels

Height                                   : 800 pixels

Display aspect ratio                     : 2.40:1

Frame rate mode                          : Constant

Frame rate                               : 23.976 (24000/1001) FPS

Color space                              : YUV

Chroma subsampling                       : 4:2:0

Bit depth                                : 10 bits

Bits/(Pixel*Frame)                       : 0.064

Stream size                              : 1.71 GiB (90%)

Writing library                          : x265 3.2+9-971180b100f8:[Windows][GCC 9.2.0][64 bit] 10bit

Encoding settings                        : cpuid=1111039 / frame-threads=2 / numa-pools=4 / wpp / no-pmode / no-pme / no-psnr / no-ssim / log-level=2 / input-csp=1 / input-res=1920×800 / interlace=0 / total-frames=148368 / level-idc=0 / high-tier=1 / uhd-bd=0 / ref=2 / no-allow-non-conformance / no-repeat-headers / annexb / no-aud / no-hrd / info / hash=0 / no-temporal-layers / open-gop / min-keyint=23 / keyint=250 / gop-lookahead=0 / bframes=4 / b-adapt=0 / b-pyramid / bframe-bias=0 / rc-lookahead=15 / lookahead-slices=5 / scenecut=40 / radl=0 / no-splice / no-intra-refresh / ctu=64 / min-cu-size=8 / no-rect / no-amp / max-tu-size=32 / tu-inter-depth=1 / tu-intra-depth=1 / limit-tu=0 / rdoq-level=0 / dynamic-rd=0.00 / no-ssim-rd / signhide / no-tskip / nr-intra=0 / nr-inter=0 / no-constrained-intra / strong-intra-smoothing / max-merge=2 / limit-refs=3 / no-limit-modes / me=1 / subme=2 / merange=57 / temporal-mvp / no-frame-dup / no-hme / weightp / no-weightb / no-analyze-src-pics / deblock=0:0 / sao / no-sao-non-deblock / rd=2 / selective-sao=4 / early-skip / rskip / fast-intra / no-tskip-fast / no-cu-lossless / no-b-intra / no-splitrd-skip / rdpenalty=0 / psy-rd=2.00 / psy-rdoq=0.00 / no-rd-refine / no-lossless / cbqpoffs=0 / crqpoffs=0 / rc=abr / bitrate=2400 / qcomp=0.60 / qpstep=4 / stats-write=0 / stats-read=0 / ipratio=1.40 / pbratio=1.30 / aq-mode=2 / aq-strength=1.00 / cutree / zone-count=0 / no-strict-cbr / qg-size=32 / no-rc-grain / qpmax=69 / qpmin=0 / no-const-vbv / sar=0 / overscan=0 / videoformat=5 / range=0 / colorprim=2 / transfer=2 / colormatrix=2 / chromaloc=0 / display-window=0 / cll=0,0 / min-luma=0 / max-luma=1023 / log2-max-poc-lsb=8 / vui-timing-info / vui-hrd-info / slices=1 / no-opt-qp-pps / no-opt-ref-list-length-pps / no-multi-pass-opt-rps / scenecut-bias=0.05 / no-opt-cu-delta-qp / no-aq-motion / no-hdr / no-hdr-opt / no-dhdr10-opt / no-idr-recovery-sei / analysis-reuse-level=5 / scale-factor=0 / refine-intra=0 / refine-inter=0 / refine-mv=1 / refine-ctu-distortion=0 / no-limit-sao / ctu-info=0 / no-lowpass-dct / refine-analysis-type=0 / copy-pic=1 / max-ausize-factor=1.0 / no-dynamic-refine / no-single-sei / no-hevc-aq / no-svt / no-field / qp-adaptation-range=1.00

Default                                  : Yes

Forced                                   : No

Audio

ID                                       : 2

Format                                   : AAC LC SBR

Format/Info                              : Advanced Audio Codec Low Complexity with Spectral Band Replication

Commercial name                          : HE-AAC

Format settings                          : Explicit

Codec ID                                 : A_AAC-2

Duration                                 : 1 h 43 min

Bit rate                                 : 256 kb/s

Channel(s)                               : 6 channels

Channel layout                           : C L R Ls Rs LFE

Sampling rate                            : 48.0 kHz

Frame rate                               : 23.438 FPS (2048 SPF)

Compression mode                         : Lossy

Stream size                              : 189 MiB (10%)

Title                                    : DTS-HD MA 5.1 – Telly

Language                                 : English

Default                                  : No

Forced                                   : No

Text

ID                                       : 3

Format                                   : UTF-8

Codec ID                                 : S_TEXT/UTF8

Codec ID/Info                            : UTF-8 Plain Text

Duration                                 : 1 h 35 min

Bit rate                                 : 27 b/s

Count of elements                        : 986

Stream size                              : 19.2 KiB (0%)

Title                                    : English [SDH] – Telly

Language                                 : English

Default                                  : No

Forced                                   : No






Monster Hunter 2020 1080p 10bDownload Torrent Magnet

#Monster #Hunter #1080p #10b