Moderato Cantabile (1960) Blu Full Torrent Magnet Download

Download Torrent Moderato Cantabile (1960) Blu Movie Full in HD Result. Movie Moderato Cantabile (1960) Blu Torrent Download full. Movie Moderato Cantabile (1960) Blu torrent Magnet Download Full. Moderato Cantabile (1960) Blu Full Movie Torrent Download And Magnet Download For your PC And Mobiles. Latest Movie Moderato Cantabile (1960) Blu Download Link In Bottom.

Torrent And Magnet Links Below

IMDB

Code:


General

Complete name : Moderato.Cantabile.(1960).BluRay.1080p.PCM.[Borsalino].EN.srt

Format : SubRip

File size : 36.9 KiB

Text

Format : SubRip

Compression mode : Lossless

General

Complete name : Moderato.Cantabile.(1960).BluRay.1080p.PCM.[Borsalino].mkv

Format : Matroska

Format version : Version 4

File size : 19.5 GiB

Duration : 1 h 34 min

Overall bit rate mode : Variable

Overall bit rate : 29.5 Mb/s

Movie name : Moderato.Cantabile.(1960).BluRay.1080p.PCM.[Borsalino]
Writing application : mkvmerge v56.1.0 (‘My Friend’) 64-bit

Writing library : libebml v1.4.2 + libmatroska v1.6.4

Video

ID : 1

Format : AVC

Format/Info : Advanced Video Codec

Format profile : [email protected]
Format settings : CABAC / 4 Ref Frames

Format settings, CABAC : Yes

Format settings, Reference frames : 4 frames

Codec ID : V_MPEG4/ISO/AVC

Duration : 1 h 34 min

Bit rate mode : Variable

Bit rate : 28.0 Mb/s

Maximum bit rate : 40.0 Mb/s

Width : 1 920 pixels

Height : 1 080 pixels

Display aspect ratio : 16:9

Frame rate mode : Constant

Frame rate : 23.976 (24000/1001) FPS

Color space : YUV

Chroma subsampling : 4:2:0

Bit depth : 8 bits

Scan type : Progressive

Bits/(Pixel*Frame) : 0.563

Stream size : 18.5 GiB (95%)

Title : French

Language : French

Default : Yes

Forced : No

Audio

ID : 2

Format : PCM

Format settings : Little / Signed

Codec ID : A_PCM/INT/LIT

Duration : 1 h 34 min

Bit rate mode : Constant

Bit rate : 1 536 kb/s

Channel(s) : 2 channels

Sampling rate : 48.0 kHz

Frame rate : 200.000 FPS (240 SPF)

Bit depth : 16 bits

Stream size : 1.01 GiB (5%)

Title : French

Language : French

Default : Yes

Forced : No

Spoken language

Subtitles (srt files)






Moderato Cantabile (1960) BluDownload Torrent Magnet

#Moderato #Cantabile #Blu