Mobile Suit Gundam: Char’s Co Full Torrent Magnet Download

Download Torrent Mobile Suit Gundam: Char’s Co Movie Full in HD Result. Movie Mobile Suit Gundam: Char’s Co Torrent Download full. Movie Mobile Suit Gundam: Char’s Co torrent Magnet Download Full. Mobile Suit Gundam: Char’s Co Full Movie Torrent Download And Magnet Download For your PC And Mobiles. Latest Movie Mobile Suit Gundam: Char’s Co Download Link In Bottom.

Torrent And Magnet Links Below

General

Format                                   : Matroska

Format version                           : Version 4

File size                                : 17.2 GiB

Duration                                 : 2 h 0 min

Overall bit rate mode                    : Variable

Overall bit rate                         : 20.5 Mb/s

Movie name                               : Mobile Suit Gundam: Char’s Counterattack (1988)

Encoded date                             : UTC 2021-05-26 06:38:55

Writing application                      : mkvmerge v53.0.0 (‘Fool’s Gold’) 64-bit

Writing library                          : libebml v1.4.1 + libmatroska v1.6.2

Video

ID                                       : 1

Format                                   : HEVC

Format/Info                              : High Efficiency Video Coding

Format profile                           : Main [email protected]@Main

HDR format                               : SMPTE ST 2086, HDR10 compatible

Codec ID                                 : V_MPEGH/ISO/HEVC

Duration                                 : 2 h 0 min

Bit rate                                 : 15.8 Mb/s

Width                                    : 3 840 pixels

Height                                   : 2 072 pixels

Display aspect ratio                     : 1.85:1

Frame rate mode                          : Constant

Frame rate                               : 23.976 (24000/1001) FPS

Color space                              : YUV

Chroma subsampling                       : 4:2:0 (Type 2)

Bit depth                                : 10 bits

Bits/(Pixel*Frame)                       : 0.083

Stream size                              : 13.3 GiB (77%)

Writing library                          : x265 3.5_RC1+2+23-bd060601e:[Windows][GCC 10.2.0][64 bit] 10bit

Encoding settings                        : cpuid=1111039 / frame-threads=4 / numa-pools=24 / wpp / no-pmode / no-pme / no-psnr / no-ssim / log-level=2 / input-csp=1 / input-res=3840×2072 / interlace=0 / total-frames=172800 / level-idc=0 / high-tier=1 / uhd-bd=0 / ref=5 / no-allow-non-conformance / repeat-headers / annexb / aud / no-hrd / info / hash=0 / no-temporal-layers / open-gop / min-keyint=23 / keyint=250 / gop-lookahead=0 / bframes=8 / b-adapt=2 / b-pyramid / bframe-bias=0 / rc-lookahead=40 / lookahead-slices=1 / scenecut=40 / hist-scenecut=0 / radl=0 / no-splice / no-intra-refresh / ctu=64 / min-cu-size=8 / rect / amp / max-tu-size=32 / tu-inter-depth=3 / tu-intra-depth=3 / limit-tu=4 / rdoq-level=2 / dynamic-rd=0.00 / no-ssim-rd / signhide / no-tskip / nr-intra=0 / nr-inter=0 / no-constrained-intra / strong-intra-smoothing / max-merge=4 / limit-refs=1 / limit-modes / me=3 / subme=4 / merange=57 / temporal-mvp / no-frame-dup / no-hme / weightp / weightb / no-analyze-src-pics / deblock=0:0 / sao / no-sao-non-deblock / rd=6 / selective-sao=4 / no-early-skip / rskip / no-fast-intra / no-tskip-fast / no-cu-lossless / b-intra / no-splitrd-skip / rdpenalty=0 / psy-rd=2.00 / psy-rdoq=1.00 / no-rd-refine / no-lossless / cbqpoffs=0 / crqpoffs=0 / rc=crf / crf=19.0 / qcomp=0.60 / qpstep=4 / stats-write=0 / stats-read=0 / ipratio=1.40 / pbratio=1.30 / aq-mode=3 / aq-strength=1.00 / cutree / zone-count=0 / no-strict-cbr / qg-size=32 / no-rc-grain / qpmax=69 / qpmin=0 / no-const-vbv / sar=0 / overscan=0 / videoformat=5 / range=0 / colorprim=9 / transfer=16 / colormatrix=9 / chromaloc=1 / chromaloc-top=2 / chromaloc-bottom=2 / display-window=0 / master-display=G(8500,39850)B(6550,2300)R(35400,14600)WP(15635,16450)L(10000000,50) / cll=1000,373 / min-luma=0 / max-luma=1023 / log2-max-poc-lsb=8 / vui-timing-info / vui-hrd-info / slices=1 / no-opt-qp-pps / no-opt-ref-list-length-pps / no-multi-pass-opt-rps / scenecut-bias=0.05 / hist-threshold=0.03 / no-opt-cu-delta-qp / no-aq-motion / hdr10 / no-hdr10-opt / no-dhdr10-opt / no-idr-recovery-sei / analysis-reuse-level=0 / analysis-save-reuse-level=0 / analysis-load-reuse-level=0 / scale-factor=0 / refine-intra=0 / refine-inter=0 / refine-mv=1 / refine-ctu-distortion=0 / no-limit-sao / ctu-info=0 / no-lowpass-dct / refine-analysis-type=0 / copy-pic=1 / max-ausize-factor=1.0 / no-dynamic-refine / no-single-sei / no-hevc-aq / no-svt / no-field / qp-adaptation-range=1.00 / scenecut-aware-qp=0conformance-window-offsets / right=0 / bottom=0 / decoder-max-rate=0 / no-vbv-live-multi-pass

Default                                  : Yes

Forced                                   : No

Color range                              : Limited

Color primaries                          : BT.2020

Transfer characteristics                 : PQ

Matrix coefficients                      : BT.2020 non-constant

Mastering display color primaries        : BT.2020

Mastering display luminance              : min: 0.0050 cd/m2, max: 1000 cd/m2

Maximum Content Light Level              : 1000 cd/m2

Maximum Frame-Average Light Level        : 373 cd/m2

Audio #1

ID                                       : 2

Format                                   : DTS XLL

Format/Info                              : Digital Theater Systems

Commercial name                          : DTS-HD Master Audio

Codec ID                                 : A_DTS

Duration                                 : 1 h 59 min

Bit rate mode                            : Variable

Bit rate                                 : 2 339 kb/s

Channel(s)                               : 6 channels

Channel layout                           : C L R Ls Rs LFE

Sampling rate                            : 48.0 kHz

Frame rate                               : 93.750 FPS (512 SPF)

Bit depth                                : 16 bits

Compression mode                         : Lossless

Delay relative to video                  : 1 s 1 ms

Stream size                              : 1.96 GiB (11%)

Language                                 : English

Default                                  : Yes

Forced                                   : No

Audio #2

ID                                       : 3

Format                                   : DTS XLL

Format/Info                              : Digital Theater Systems

Commercial name                          : DTS-HD Master Audio

Codec ID                                 : A_DTS

Duration                                 : 1 h 59 min

Bit rate mode                            : Variable

Bit rate                                 : 2 348 kb/s

Channel(s)                               : 6 channels

Channel layout                           : C L R Ls Rs LFE

Sampling rate                            : 48.0 kHz

Frame rate                               : 93.750 FPS (512 SPF)

Bit depth                                : 16 bits

Compression mode                         : Lossless

Delay relative to video                  : 1 s 1 ms

Stream size                              : 1.97 GiB (11%)

Language                                 : Japanese

Default                                  : No

Forced                                   : No

Text #1

ID                                       : 4

Format                                   : PGS

Muxing mode                              : zlib

Codec ID                                 : S_HDMV/PGS

Codec ID/Info                            : Picture based subtitle format used on BDs/HD-DVDs

Duration                                 : 1 h 58 min

Bit rate                                 : 48.9 kb/s

Count of elements                        : 2942

Stream size                              : 41.6 MiB (0%)

Title                                    : English

Language                                 : English

Default                                  : No

Forced                                   : No

Text #2

ID                                       : 5

Format                                   : PGS

Muxing mode                              : zlib

Codec ID                                 : S_HDMV/PGS

Codec ID/Info                            : Picture based subtitle format used on BDs/HD-DVDs

Duration                                 : 1 h 58 min

Bit rate                                 : 1 519 b/s

Count of elements                        : 40

Stream size                              : 1.29 MiB (0%)

Title                                    : English Signs and Songs

Language                                 : English

Default                                  : Yes

Forced                                   : No

Text #3

ID                                       : 6

Format                                   : PGS

Muxing mode                              : zlib

Codec ID                                 : S_HDMV/PGS

Codec ID/Info                            : Picture based subtitle format used on BDs/HD-DVDs

Duration                                 : 1 h 59 min

Bit rate                                 : 37.7 kb/s

Count of elements                        : 3624

Stream size                              : 32.1 MiB (0%)

Title                                    : Japanese

Language                                 : Japanese

Default                                  : No

Forced                                   : No

Menu

00:00:00.000                             : en:5th Luna

00:14:04.010                             : en:V Gundam

00:35:18.867                             : en:Flight

00:49:54.825                             : en:Deceit

01:05:05.068                             : en:Axis

01:20:17.521                             : en:Love and Hatred

01:30:41.227                             : en:Alpha · Azieru

01:40:48.125                             : en:Fate

01:48:01.225                             : en:Miracle

01:55:31.091                             : en:Ending

Source:

Remux 49.9 GB

Coming Soon:

Angels and Demons 4k

Amores Perros

And Now for Something Completely Different

Anonymous

Apt Pupil

The Avengers 4k

Up in the Air

True Grit
Troy

Traitor

Avengers: Age of Ultron 4k

Mobile Suit Gundam 00 S01

Arrested Development S02

Mobile Suit Gundam: Char’s CoDownload Torrent Magnet

#Mobile #Suit #Gundam #Chars