Mission Impossible – Rogue Na Full Torrent Magnet Download

Download Torrent Mission Impossible – Rogue Na Movie Full in HD Result. Movie Mission Impossible – Rogue Na Torrent Download full. Movie Mission Impossible – Rogue Na torrent Magnet Download Full. Mission Impossible – Rogue Na Full Movie Torrent Download And Magnet Download For your PC And Mobiles. Latest Movie Mission Impossible – Rogue Na Download Link In Bottom.

Torrent And Magnet Links Below

Greets

Admin , Moderator , Noir, Ex0duS5150, theeshiznit, MisterQ, UserHEVC, miok, Silmarillion, Mr. Blue, MaDHeX and many more ;

Join Us On TeleGram

https://t.me/gopisahit

Mission Impossible – Rogue Nation 2015 GOPISAHI

Format : Matroska

Format version : Version 4

File size : 1.22 GiB

Duration : 2 h 11 min

Overall bit rate : 1 323 kb/s

Movie name : Mission: Impossible – Rogue Nation 2015 GOPISAHI

Encoded date : UTC 2019-08-09 04:51:56

Video

ID : 1

Format : AVC

Format/Info : Advanced Video Codec

Format profile : [email protected]
Format settings : CABAC / 12 Ref Frames

Format settings, CABAC : Yes

Format settings, Reference fra : 12 frames

Codec ID : V_MPEG4/ISO/AVC

Duration : 2 h 11 min

Bit rate : 899 kb/s

Width : 1 280 pixels

Height : 536 pixels

Display aspect ratio : 2.40:1

Frame rate mode : Constant

Frame rate : 23.976 (24000/1001) FPS

Color space : YUV

Chroma subsampling : 4:2:0

Bit depth : 8 bits

Scan type : Progressive

Bits/(Pixel*Frame) : 0.055

Stream size : 846 MiB (68%)

Title : GOPISAHI

Writing library : x264 core 157 r2935 545de2f

Audio #1

ID : 2

Format : AAC LC

Format/Info : Advanced Audio Codec Low Complexity

Codec ID : A_AAC-2

Duration : 2 h 11 min

Bit rate : 192 kb/s

Channel(s) : 6 channels

Channel layout : C L R Ls Rs LFE

Sampling rate : 48.0 kHz

Frame rate : 46.875 FPS (1024 SPF)

Compression mode : Lossy

Delay relative to video : -21 ms

Stream size : 181 MiB (15%)

Title : GOPISAHI

Language : Hindi

Default : Yes

Forced : No

Audio #2

ID : 3

Format : AAC LC

Format/Info : Advanced Audio Codec Low Complexity

Codec ID : A_AAC-2

Duration : 2 h 11 min

Bit rate : 192 kb/s

Channel(s) : 6 channels

Channel layout : C L R Ls Rs LFE

Sampling rate : 48.0 kHz

Frame rate : 46.875 FPS (1024 SPF)

Compression mode : Lossy

Delay relative to video : -21 ms

Stream size : 181 MiB (15%)

Title : GOPISAHI

Language : English

Default : No

Forced : No

Text #1

ID : 4

Format : PGS

Muxing mode : zlib

Codec ID : S_HDMV/PGS

Codec ID/Info : Picture based subtitle format used on BDs/HD-DVDs

Duration : 2 h 10 min

Bit rate : 22.6 kb/s

Count of elements : 2518

Stream size : 21.1 MiB (2%)

Title : GOPISAHI

Language : Hindi

Default : Yes

Forced : Yes

Text #2

ID : 5

Format : PGS

Muxing mode : zlib

Codec ID : S_HDMV/PGS

Codec ID/Info : Picture based subtitle format used on BDs/HD-DVDs

Duration : 2 h 3 min

Bit rate : 26.9 kb/s

Count of elements : 2413

Stream size : 23.7 MiB (2%)

Title : GOPISAHI

Language : English

Default : No

Forced : No

Text #3

ID : 6

Format : PGS

Muxing mode : zlib

Codec ID : S_HDMV/PGS

Codec ID/Info : Picture based subtitle format used on BDs/HD-DVDs

Duration : 2 h 10 min

Bit rate : 80.3 kb/s

Count of elements : 5604

Stream size : 75.2 MiB (6%)

Title : GOPISAHI

Language : English

Default : No

Forced : No

Menu

00:00:00.000 : en:Chapter 01

00:09:53.092 : en:Chapter 02

00:20:45.703 : en:Chapter 03

00:25:32.072 : en:Chapter 04

00:32:00.669 : en:Chapter 05

00:40:03.443 : en:Chapter 06

00:49:35.556 : en:Chapter 07

01:01:01.157 : en:Chapter 08

01:09:51.687 : en:Chapter 09

01:20:20.858 : en:Chapter 10

01:29:29.322 : en:Chapter 11

01:38:32.824 : en:Chapter 12

01:48:19.410 : en:Chapter 13

01:57:13.944 : en:Chapter 14

02:03:02.709 : en:Chapter 15

Mission Impossible – Rogue NaDownload Torrent Magnet

#Mission #Impossible #Rogue