Mission – Impossible – Rogue Full Torrent Magnet Download

Download Torrent Mission – Impossible – Rogue Movie Full in HD Result. Movie Mission – Impossible – Rogue Torrent Download full. Movie Mission – Impossible – Rogue torrent Magnet Download Full. Mission – Impossible – Rogue Full Movie Torrent Download And Magnet Download For your PC And Mobiles. Latest Movie Mission – Impossible – Rogue Download Link In Bottom.

Torrent And Magnet Links Below

DATI – TRAMA

Titolo: Mission: Impossible – Rogue Nation

Nazione: China, Hong Kong, USA

Anno: 2015

Genere: Action, Adventure, Thriller

Durata: 131 min

Regia: Christopher McQuarrie

Voti: IMDb (7.4/10), Rotten Tomatoes (93%), Metacritic (75/100)

Cast: Tom Cruise, Jeremy Renner, Simon Pegg, Rebecca Ferguson

Con la IMF sciolta, Ethan Hunt (Tom Cruise) e il suo team devono affrontare una nuova missione impossibile: eliminare il Sindacato, un’organizzazione criminale di agenti speciali altamente qualificati incaricati di distruggere la IMF e di creare un nuovo ordine mondiale, uno “stato canaglia”, attraverso una serie crescente di attacchi terroristici. Per riuscirci, Ethan riunisce la sua squadra e si allea a Ilsa Faust (Rebecca Ferguson), un’enigmatica ex agente del governo britannico.

IMMAGINI



REPORT

General

Unique ID : 34260817134669489391346054628308942087 (0x19C664B37ED72CB89768F1F22F97FD07)

Complete name : C:UsersAdministratorDownloadsOldMissionImpossible5Mission – Impossible – Rogue Nation (2015) UHDRip 2160p HEVC HDR ITA ENG AC3 5.1 ENG TrueHD Atmos 7.1 PirateMKV.mkv

Format : Matroska

Format version : Version 4

File size : 20.6 GiB

Duration : 2 h 11 min

Overall bit rate mode : Variable

Overall bit rate : 22.4 Mb/s

Movie name : Mission: Impossible – Rogue Nation (2015) – PirateMKV

Encoded date : UTC 2018-09-27 06:38:52

Writing application : mkvmerge v27.0.0 (‘Metropolis’) 64-bit

Writing library : libebml v1.3.6 + libmatroska v1.4.9 / Lavf58.18.102

Copyright : Encoded by PirateMKV

Video

ID : 1

Format : HEVC

Format/Info : High Efficiency Video Coding

Commercial name : HDR10

Format profile : Main [email protected]@High

Codec ID : V_MPEGH/ISO/HEVC

Duration : 2 h 11 min

Bit rate : 16.1 Mb/s

Width : 3 840 pixels

Height : 1 600 pixels

Display aspect ratio : 2.40:1

Frame rate mode : Constant

Frame rate : 23.976 (24000/1001) FPS

Color space : YUV

Chroma subsampling : 4:2:0 (Type 2)

Bit depth : 10 bits

Bits/(Pixel*Frame) : 0.109

Stream size : 14.8 GiB (72%)

Writing library : x265 2.8+66-88ee12651e30:[Windows][GCC 8.2.1][64 bit] 10bit

Encoding settings : cpuid=1111039 / frame-threads=3 / numa-pools=8 / wpp / no-pmode / no-pme / no-psnr / no-ssim / log-level=2 / input-csp=1 / input-res=3840×1600 / interlace=0 / total-frames=0 / level-idc=51 / high-tier=1 / uhd-bd=0 / ref=5 / no-allow-non-conformance / repeat-headers / annexb / aud / hrd / info / hash=0 / no-temporal-layers / no-open-gop / min-keyint=1 / keyint=24 / gop-lookahead=0 / bframes=8 / b-adapt=2 / b-pyramid / bframe-bias=0 / rc-lookahead=40 / lookahead-slices=0 / scenecut=40 / radl=0 / no-intra-refresh / ctu=64 / min-cu-size=8 / no-rect / no-amp / max-tu-size=32 / tu-inter-depth=4 / tu-intra-depth=4 / limit-tu=4 / rdoq-level=0 / dynamic-rd=0.00 / no-ssim-rd / signhide / no-tskip / nr-intra=0 / nr-inter=0 / no-constrained-intra / no-strong-intra-smoothing / max-merge=3 / limit-refs=3 / limit-modes / me=2 / subme=5 / merange=57 / temporal-mvp / weightp / weightb / no-analyze-src-pics / deblock=-3:-3 / no-sao / no-sao-non-deblock / rd=4 / no-early-skip / rskip / fast-intra / no-tskip-fast / no-cu-lossless / b-intra / no-splitrd-skip / rdpenalty=0 / psy-rd=2.00 / psy-rdoq=0.00 / no-rd-refine / no-lossless / cbqpoffs=-3 / crqpoffs=-3 / rc=crf / crf=22.6 / qcomp=0.70 / qpstep=4 / stats-write=0 / stats-read=0 / vbv-maxrate=160000 / vbv-bufsize=160000 / vbv-init=0.9 / crf-max=0.0 / crf-min=0.0 / ipratio=1.40 / pbratio=1.30 / aq-mode=3 / aq-strength=0.70 / no-cutree / zone-count=0 / no-strict-cbr / qg-size=32 / no-rc-grain / qpmax=69 / qpmin=0 / no-const-vbv / sar=1 / overscan=0 / videoformat=5 / range=0 / colorprim=9 / transfer=16 / colormatrix=9 / chromaloc=1 / chromaloc-top=2 / chromaloc-bottom=2 / display-window=0 / master-display=G(13250,34500)B(7500,3000)R(34000,16000)WP(15635,16450)L(10000000,1) / max-cll=0,0 / min-luma=0 / max-luma=1023 / log2-max-poc-lsb=8 / vui-timing-info / vui-hrd-info / slices=1 / no-opt-qp-pps / no-opt-ref-list-length-pps / no-multi-pass-opt-rps / scenecut-bias=0.05 / no-opt-cu-delta-qp / no-aq-motion / hdr / hdr-opt / no-dhdr10-opt / no-idr-recovery-sei / analysis-reuse-level=5 / scale-factor=0 / refine-intra=0 / refine-inter=0 / refine-mv=0 / no-limit-sao / ctu-info=0 / no-lowpass-dct / refine-mv-type=0 / copy-pic=1 / max-ausize-factor=1.0 / no-dynamic-refine / no-single-sei

Language : English

Default : Yes

Forced : No

Color range : Limited

Color primaries : BT.2020

Transfer characteristics : PQ

Matrix coefficients : BT.2020 non-constant

Mastering display color primaries : Display P3

Mastering display luminance : min: 0.0001 cd/m2, max: 1000 cd/m2

Audio #1

ID : 2

Format : AC-3

Format/Info : Audio Coding 3

Commercial name : Dolby Digital

Codec ID : A_AC3

Duration : 2 h 11 min

Bit rate mode : Constant

Bit rate : 640 kb/s

Channel(s) : 6 channels

Channel layout : L R C LFE Ls Rs

Sampling rate : 48.0 kHz

Frame rate : 31.250 FPS (1536 SPF)

Bit depth : 16 bits

Compression mode : Lossy

Stream size : 602 MiB (3%)

Title : AC3 5.1

Language : Italian

Service kind : Complete Main

Default : Yes

Forced : No

Audio #2

ID : 3

Format : MLP FBA 16-ch

Format/Info : Meridian Lossless Packing FBA with 16-channel presentation

Commercial name : Dolby TrueHD with Dolby Atmos

Codec ID : A_TRUEHD

Duration : 2 h 11 min

Bit rate mode : Variable

Bit rate : 4 895 kb/s

Maximum bit rate : 8 736 kb/s

Channel(s) : 8 channels

Channel layout : L R C LFE Ls Rs Lb Rb

Sampling rate : 48.0 kHz

Frame rate : 1 200.000 FPS (40 SPF)

Compression mode : Lossless

Stream size : 4.50 GiB (22%)

Title : TrueHD Atmos7.1

Language : English

Default : No

Forced : No

Number of dynamic objects : 11

Bed channel count : 1 channel

Bed channel configuration : LFE

Audio #3

ID : 4

Format : AC-3

Format/Info : Audio Coding 3

Commercial name : Dolby Digital

Codec ID : A_AC3

Duration : 2 h 11 min

Bit rate mode : Constant

Bit rate : 640 kb/s

Channel(s) : 6 channels

Channel layout : L R C LFE Ls Rs

Sampling rate : 48.0 kHz

Frame rate : 31.250 FPS (1536 SPF)

Bit depth : 16 bits

Compression mode : Lossy

Stream size : 602 MiB (3%)

Title : AC3 5.1

Language : English

Service kind : Complete Main

Default : No

Forced : No

Text #1

ID : 5

Format : UTF-8

Codec ID : S_TEXT/UTF8

Codec ID/Info : UTF-8 Plain Text

Duration : 1 h 57 min

Bit rate : 1 b/s

Count of elements : 44

Stream size : 1 022 Bytes (0%)

Title : Forced

Language : Italian

Default : Yes

Forced : Yes

Text #2

ID : 6

Format : UTF-8

Codec ID : S_TEXT/UTF8

Codec ID/Info : UTF-8 Plain Text

Duration : 1 h 53 min

Bit rate : 0 b/s

Count of elements : 23

Stream size : 644 Bytes (0%)

Title : Forced

Language : English

Default : No

Forced : No

Text #3

ID : 7

Format : UTF-8

Codec ID : S_TEXT/UTF8

Codec ID/Info : UTF-8 Plain Text

Duration : 2 h 10 min

Bit rate : 44 b/s

Count of elements : 1208

Stream size : 42.2 KiB (0%)

Title : Normal

Language : Italian

Default : No

Forced : No

Text #4

ID : 8

Format : UTF-8

Codec ID : S_TEXT/UTF8

Codec ID/Info : UTF-8 Plain Text

Duration : 2 h 3 min

Bit rate : 49 b/s

Count of elements : 1208

Stream size : 44.6 KiB (0%)

Title : Normal

Language : English

Default : No

Forced : No

Text #5

ID : 9

Format : UTF-8

Codec ID : S_TEXT/UTF8

Codec ID/Info : UTF-8 Plain Text

Duration : 2 h 3 min

Bit rate : 53 b/s

Count of elements : 1410

Stream size : 48.7 KiB (0%)

Title : SDH

Language : English

Default : No

Forced : No

Menu

00:00:00.000 : en:”Open the Door!” / Opening Titles

00:09:53.092 : en:Luck Runs Out

00:20:45.703 : en:Six Months Later

00:25:32.072 : en:Opera Tickets

00:32:00.669 : en:At the Opera

00:40:03.443 : en:A Rogue Nation

00:49:35.556 : en:Morocco

01:01:01.157 : en:Changing the Profile

01:09:51.687 : en:High Speed Chase

01:20:20.858 : en:…And We Helped Him Steal It.

01:29:29.322 : en:Delivering a Message

01:38:32.824 : en:The Prime Minister

01:48:19.410 : en:I Am the Disk

01:57:13.944 : en:Face To Face

02:03:02.709 : en:Welcome to the IMF

02:04:42.175 : en:Closing Credits

GOOD DOWNLOAD

Mission – Impossible – Rogue Download Torrent Magnet

#Mission #Impossible #Rogue