Mission – Impossible Iii 2006 Full Torrent Magnet Download

Download Torrent Mission – Impossible Iii 2006 Movie Full in HD Result. Movie Mission – Impossible Iii 2006 Torrent Download full. Movie Mission – Impossible Iii 2006 torrent Magnet Download Full. Mission – Impossible Iii 2006 Full Movie Torrent Download And Magnet Download For your PC And Mobiles. Latest Movie Mission – Impossible Iii 2006 Download Link In Bottom.

Torrent And Magnet Links Below

Greets

Admin , Moderator , Noir, Ex0duS5150, theeshiznit, MisterQ, UserHEVC, miok, Silmarillion, Mr. Blue, MaDHeX and many more ;

Join Us On TeleGram

https://t.me/gopisahit

Mission – Impossible Iii 2006 GOPISAHI

Format : Matroska

Format version : Version 4

File size : 1.07 GiB

Duration : 2 h 5 min

Overall bit rate : 1 217 kb/s

Movie name : Mission: Impossible III 2006 GOPISAHI

Encoded date : UTC 2019-08-09 04:50:34

Video

ID : 1

Format : AVC

Format/Info : Advanced Video Codec

Format profile : [email protected]
Format settings : CABAC / 11 Ref Frames

Format settings, CABAC : Yes

Format settings, Reference fra : 11 frames

Codec ID : V_MPEG4/ISO/AVC

Duration : 2 h 5 min

Bit rate : 899 kb/s

Width : 1 280 pixels

Height : 546 pixels

Display aspect ratio : 2.35:1

Frame rate mode : Constant

Frame rate : 23.976 (24000/1001) FPS

Color space : YUV

Chroma subsampling : 4:2:0

Bit depth : 8 bits

Scan type : Progressive

Bits/(Pixel*Frame) : 0.054

Stream size : 806 MiB (74%)

Title : GOPISAHI

Writing library : x264 core 157 r2935 545de2f

Audio #1

ID : 2

Format : AAC LC

Format/Info : Advanced Audio Codec Low Complexity

Codec ID : A_AAC-2

Duration : 2 h 5 min

Bit rate : 96.0 kb/s

Channel(s) : 2 channels

Channel layout : L R

Sampling rate : 48.0 kHz

Frame rate : 46.875 FPS (1024 SPF)

Compression mode : Lossy

Delay relative to video : 1 s 7 ms

Stream size : 86.4 MiB (8%)

Title : GOPISAHI

Language : Hindi

Default : Yes

Forced : No

Audio #2

ID : 3

Format : AAC LC

Format/Info : Advanced Audio Codec Low Complexity

Codec ID : A_AAC-2

Duration : 2 h 5 min

Bit rate : 192 kb/s

Channel(s) : 6 channels

Channel layout : C L R Ls Rs LFE

Sampling rate : 48.0 kHz

Frame rate : 46.875 FPS (1024 SPF)

Compression mode : Lossy

Delay relative to video : -21 ms

Stream size : 172 MiB (16%)

Title : GOPISAHI

Language : English

Default : No

Forced : No

Text #1

ID : 4

Format : PGS

Muxing mode : zlib

Codec ID : S_HDMV/PGS

Codec ID/Info : Picture based subtitle format used on BDs/HD-DVDs

Duration : 1 h 57 min

Bit rate : 30.8 kb/s

Count of elements : 2416

Stream size : 26.0 MiB (2%)

Title : GOPISAHI

Language : English

Default : Yes

Forced : Yes

Text #2

ID : 5

Format : PGS

Muxing mode : zlib

Codec ID : S_HDMV/PGS

Codec ID/Info : Picture based subtitle format used on BDs/HD-DVDs

Duration : 2 h 5 min

Bit rate : 71.1 kb/s

Count of elements : 4718

Stream size : 63.7 MiB (6%)

Title : GOPISAHI

Language : English

Default : No

Forced : No

Menu

00:00:00.000 : en:Chapter 01

00:04:02.451 : en:Chapter 02

00:12:57.860 : en:Chapter 03

00:21:18.068 : en:Chapter 04

00:26:32.299 : en:Chapter 05

00:32:56.474 : en:Chapter 06

00:39:30.493 : en:Chapter 07

00:46:56.439 : en:Chapter 08

00:51:44.310 : en:Chapter 09

00:57:34.868 : en:Chapter 10

01:02:08.975 : en:Chapter 11

01:09:06.642 : en:Chapter 12

01:18:19.236 : en:Chapter 13

01:23:31.381 : en:Chapter 14

01:27:35.083 : en:Chapter 15

01:34:08.017 : en:Chapter 16

01:42:43.449 : en:Chapter 17

01:51:10.831 : en:Chapter 18

01:57:27.832 : en:Chapter 19

Mission – Impossible Iii 2006Download Torrent Magnet

#Mission #Impossible #Iii