Mission – Impossible Ii 2000 Full Torrent Magnet Download

Download Torrent Mission – Impossible Ii 2000 Movie Full in HD Result. Movie Mission – Impossible Ii 2000 Torrent Download full. Movie Mission – Impossible Ii 2000 torrent Magnet Download Full. Mission – Impossible Ii 2000 Full Movie Torrent Download And Magnet Download For your PC And Mobiles. Latest Movie Mission – Impossible Ii 2000 Download Link In Bottom.

Torrent And Magnet Links Below

Greets

Admin , Moderator , Noir, Ex0duS5150, theeshiznit, MisterQ, UserHEVC, miok, Silmarillion, Mr. Blue, MaDHeX and many more ;

Join Us On TeleGram

https://t.me/gopisahit

Mission – Impossible Ii 2000 GOPISAHI

Format : Matroska

Format version : Version 4

File size : 1.03 GiB

Duration : 2 h 3 min

Overall bit rate : 1 197 kb/s

Movie name : Mission: Impossible II 2000 GOPISAHI

Encoded date : UTC 2019-08-07 05:35:16

Video

ID : 1

Format : AVC

Format/Info : Advanced Video Codec

Format profile : [email protected]
Format settings : CABAC / 12 Ref Frames

Format settings, CABAC : Yes

Format settings, Reference fra : 12 frames

Codec ID : V_MPEG4/ISO/AVC

Duration : 2 h 3 min

Bit rate : 899 kb/s

Width : 1 280 pixels

Height : 532 pixels

Display aspect ratio : 2.40:1

Frame rate mode : Constant

Frame rate : 23.976 (24000/1001) FPS

Color space : YUV

Chroma subsampling : 4:2:0

Bit depth : 8 bits

Scan type : Progressive

Bits/(Pixel*Frame) : 0.055

Stream size : 795 MiB (75%)

Title : GOPISAHI

Writing library : x264 core 157 r2935 545de2f

Audio #1

ID : 2

Format : AAC LC

Format/Info : Advanced Audio Codec Low Complexity

Codec ID : A_AAC-2

Duration : 2 h 3 min

Bit rate : 96.0 kb/s

Channel(s) : 2 channels

Channel layout : L R

Sampling rate : 48.0 kHz

Frame rate : 46.875 FPS (1024 SPF)

Compression mode : Lossy

Delay relative to video : 1 s 1 ms

Stream size : 85.3 MiB (8%)

Title : GOPISAHI

Language : Hindi

Default : Yes

Forced : No

Audio #2

ID : 3

Format : AAC LC

Format/Info : Advanced Audio Codec Low Complexity

Codec ID : A_AAC-2

Duration : 2 h 3 min

Bit rate : 192 kb/s

Channel(s) : 6 channels

Channel layout : C L R Ls Rs LFE

Sampling rate : 48.0 kHz

Frame rate : 46.875 FPS (1024 SPF)

Compression mode : Lossy

Delay relative to video : -21 ms

Stream size : 170 MiB (16%)

Title : GOPISAHI

Language : English

Default : No

Forced : No

Text

ID : 4

Format : PGS

Muxing mode : zlib

Codec ID : S_HDMV/PGS

Codec ID/Info : Picture based subtitle format used on BDs/HD-DVDs

Duration : 1 h 57 min

Bit rate : 22.8 kb/s

Count of elements : 1872

Stream size : 19.2 MiB (2%)

Title : GOPISAHI

Language : English

Default : Yes

Forced : Yes

Menu

00:00:00.000 : en:Chapter 01

00:05:57.023 : en:Chapter 02

00:10:39.347 : en:Chapter 03

00:18:03.416 : en:Chapter 04

00:23:47.343 : en:Chapter 05

00:34:47.877 : en:Chapter 06

00:45:40.071 : en:Chapter 07

00:56:08.407 : en:Chapter 08

01:05:07.695 : en:Chapter 09

01:11:38.961 : en:Chapter 10

01:18:24.742 : en:Chapter 11

01:25:59.905 : en:Chapter 12

01:35:40.109 : en:Chapter 13

01:40:16.802 : en:Chapter 14

01:49:33.692 : en:Chapter 15

01:53:59.166 : en:Chapter 16

01:58:58.590 : en:Chapter 17

Mission – Impossible Ii 2000 Download Torrent Magnet

#Mission #Impossible