Mission Impossible – Ghost Pr Full Torrent Magnet Download

Download Torrent Mission Impossible – Ghost Pr Movie Full in HD Result. Movie Mission Impossible – Ghost Pr Torrent Download full. Movie Mission Impossible – Ghost Pr torrent Magnet Download Full. Mission Impossible – Ghost Pr Full Movie Torrent Download And Magnet Download For your PC And Mobiles. Latest Movie Mission Impossible – Ghost Pr Download Link In Bottom.

Torrent And Magnet Links Below

Greets

Admin , Moderator , Noir, Ex0duS5150, theeshiznit, MisterQ, UserHEVC, miok, Silmarillion, Mr. Blue, MaDHeX and many more ;

Join Us On TeleGram

https://t.me/gopisahit

Mission Impossible – Ghost Protocol 2011 GOPISAHI

Format : Matroska

Format version : Version 4

File size : 1.21 GiB

Duration : 2 h 12 min

Overall bit rate : 1 304 kb/s

Movie name : Mission: Impossible – Ghost Protocol 2011 GOPISAHI

Encoded date : UTC 2019-08-09 04:53:19

Video

ID : 1

Format : AVC

Format/Info : Advanced Video Codec

Format profile : [email protected]
Format settings : CABAC / 12 Ref Frames

Format settings, CABAC : Yes

Format settings, Reference fra : 12 frames

Codec ID : V_MPEG4/ISO/AVC

Duration : 2 h 12 min

Bit rate : 899 kb/s

Width : 1 280 pixels

Height : 534 pixels

Display aspect ratio : 2.40:1

Frame rate mode : Constant

Frame rate : 23.976 (24000/1001) FPS

Color space : YUV

Chroma subsampling : 4:2:0

Bit depth : 8 bits

Scan type : Progressive

Bits/(Pixel*Frame) : 0.055

Stream size : 855 MiB (69%)

Title : GOPISAHI

Writing library : x264 core 157 r2935 545de2f

Audio #1

ID : 2

Format : AAC LC

Format/Info : Advanced Audio Codec Low Complexity

Codec ID : A_AAC-2

Duration : 2 h 12 min

Bit rate : 192 kb/s

Channel(s) : 6 channels

Channel layout : C L R Ls Rs LFE

Sampling rate : 48.0 kHz

Frame rate : 46.875 FPS (1024 SPF)

Compression mode : Lossy

Delay relative to video : 5 ms

Stream size : 183 MiB (15%)

Title : GOPISAHI

Language : Hindi

Default : Yes

Forced : No

Audio #2

ID : 3

Format : AAC LC

Format/Info : Advanced Audio Codec Low Complexity

Codec ID : A_AAC-2

Duration : 2 h 12 min

Bit rate : 192 kb/s

Channel(s) : 6 channels

Channel layout : C L R Ls Rs LFE

Sampling rate : 48.0 kHz

Frame rate : 46.875 FPS (1024 SPF)

Compression mode : Lossy

Delay relative to video : -21 ms

Stream size : 183 MiB (15%)

Title : GOPISAHI

Language : English

Default : No

Forced : No

Text #1

ID : 4

Format : PGS

Muxing mode : zlib

Codec ID : S_HDMV/PGS

Codec ID/Info : Picture based subtitle format used on BDs/HD-DVDs

Duration : 2 h 11 min

Bit rate : 37.4 kb/s

Count of elements : 3420

Stream size : 35.3 MiB (3%)

Title : GOPISAHI

Language : Hindi

Default : Yes

Forced : Yes

Text #2

ID : 5

Format : PGS

Muxing mode : zlib

Codec ID : S_HDMV/PGS

Codec ID/Info : Picture based subtitle format used on BDs/HD-DVDs

Duration : 2 h 2 min

Bit rate : 14.7 kb/s

Count of elements : 2537

Stream size : 12.9 MiB (1%)

Title : GOPISAHI

Language : English

Default : No

Forced : No

Text #3

ID : 6

Format : PGS

Muxing mode : zlib

Codec ID : S_HDMV/PGS

Codec ID/Info : Picture based subtitle format used on BDs/HD-DVDs

Duration : 1 h 55 min

Bit rate : 796 b/s

Count of elements : 173

Stream size : 672 KiB (0%)

Title : GOPISAHI

Language : English

Default : No

Forced : No

Mission Impossible – Ghost PrDownload Torrent Magnet

#Mission #Impossible #Ghost