Mission Impossible – Fallout Full Torrent Magnet Download

Download Torrent Mission Impossible – Fallout Movie Full in HD Result. Movie Mission Impossible – Fallout Torrent Download full. Movie Mission Impossible – Fallout torrent Magnet Download Full. Mission Impossible – Fallout Full Movie Torrent Download And Magnet Download For your PC And Mobiles. Latest Movie Mission Impossible – Fallout Download Link In Bottom.

Torrent And Magnet Links Below

Greets

Admin , Moderator , Noir, Ex0duS5150, theeshiznit, MisterQ, UserHEVC, miok, Silmarillion, Mr. Blue, MaDHeX and many more ;

Join Us On TeleGram

https://t.me/gopisahit

Mission Impossible – Fallout 2018 Imax GOPISAHI

Format : Matroska

Format version : Version 4

File size : 1.40 GiB

Duration : 2 h 27 min

Overall bit rate : 1 360 kb/s

Movie name : Mission: Impossible – Fallout 2018 IMAX GOPISAHI

Encoded date : UTC 2019-08-09 04:54:39

Video

ID : 1

Format : AVC

Format/Info : Advanced Video Codec

Format profile : [email protected]
Format settings : CABAC / 12 Ref Frames

Format settings, CABAC : Yes

Format settings, Reference fra : 12 frames

Codec ID : V_MPEG4/ISO/AVC

Duration : 2 h 27 min

Bit rate : 899 kb/s

Width : 1 280 pixels

Height : 536 pixels

Display aspect ratio : 2.40:1

Frame rate mode : Constant

Frame rate : 23.976 (24000/1001) FPS

Color space : YUV

Chroma subsampling : 4:2:0

Bit depth : 8 bits

Scan type : Progressive

Bits/(Pixel*Frame) : 0.055

Stream size : 947 MiB (66%)

Title : GOPISAHI

Writing library : x264 core 157 r2935 545de2f

Audio #1

ID : 2

Format : AAC LC

Format/Info : Advanced Audio Codec Low Complexity

Codec ID : A_AAC-2

Duration : 2 h 27 min

Bit rate : 192 kb/s

Channel(s) : 6 channels

Channel layout : C L R Ls Rs LFE

Sampling rate : 48.0 kHz

Frame rate : 46.875 FPS (1024 SPF)

Compression mode : Lossy

Delay relative to video : -21 ms

Stream size : 202 MiB (14%)

Title : GOPISAHI

Language : Hindi

Default : Yes

Forced : No

Audio #2

ID : 3

Format : AAC LC

Format/Info : Advanced Audio Codec Low Complexity

Codec ID : A_AAC-2

Duration : 2 h 27 min

Bit rate : 192 kb/s

Channel(s) : 6 channels

Channel layout : C L R Ls Rs LFE

Sampling rate : 48.0 kHz

Frame rate : 46.875 FPS (1024 SPF)

Compression mode : Lossy

Delay relative to video : -21 ms

Stream size : 203 MiB (14%)

Title : GOPISAHI

Language : English

Default : No

Forced : No

Text #1

ID : 4

Format : PGS

Muxing mode : zlib

Codec ID : S_HDMV/PGS

Codec ID/Info : Picture based subtitle format used on BDs/HD-DVDs

Duration : 2 h 26 min

Bit rate : 24.4 kb/s

Count of elements : 3163

Stream size : 25.6 MiB (2%)

Title : GOPISAHI

Language : Hindi

Default : Yes

Forced : Yes

Text #2

ID : 5

Format : PGS

Muxing mode : zlib

Codec ID : S_HDMV/PGS

Codec ID/Info : Picture based subtitle format used on BDs/HD-DVDs

Duration : 2 h 19 min

Bit rate : 29.7 kb/s

Count of elements : 3111

Stream size : 29.5 MiB (2%)

Title : GOPISAHI

Language : English

Default : No

Forced : No

Text #3

ID : 6

Format : PGS

Muxing mode : zlib

Codec ID : S_HDMV/PGS

Codec ID/Info : Picture based subtitle format used on BDs/HD-DVDs

Duration : 2 h 27 min

Bit rate : 82.4 kb/s

Count of elements : 6950

Stream size : 86.8 MiB (6%)

Title : GOPISAHI

Language : English

Default : No

Forced : No

Text #4

ID : 7

Format : PGS

Muxing mode : zlib

Codec ID : S_HDMV/PGS

Codec ID/Info : Picture based subtitle format used on BDs/HD-DVDs

Duration : 2 h 25 min

Bit rate : 83.8 kb/s

Count of elements : 6544

Stream size : 87.3 MiB (6%)

Title : GOPISAHI

Language : English

Default : No

Forced : No

Text #5

ID : 8

Format : PGS

Muxing mode : zlib

Codec ID : S_HDMV/PGS

Codec ID/Info : Picture based subtitle format used on BDs/HD-DVDs

Duration : 2 h 21 min

Bit rate : 41.6 kb/s

Count of elements : 3662

Stream size : 42.1 MiB (3%)

Title : GOPISAHI

Language : English

Default : No

Forced : No

Menu

00:00:00.000 : en:Chapter 01

00:10:37.011 : en:Chapter 02

00:17:11.405 : en:Chapter 03

00:26:57.241 : en:Chapter 04

00:35:56.654 : en:Chapter 05

00:49:18.414 : en:Chapter 06

01:00:00.806 : en:Chapter 07

01:10:23.719 : en:Chapter 08

01:17:07.289 : en:Chapter 09

01:28:28.470 : en:Chapter 10

01:39:09.652 : en:Chapter 11

01:46:26.547 : en:Chapter 12

01:55:45.564 : en:Chapter 13

02:03:10.592 : en:Chapter 14

02:14:00.908 : en:Chapter 15

02:19:48.088 : en:Chapter 16

Mission Impossible – Fallout Download Torrent Magnet

#Mission #Impossible #Fallout