Mission – Impossible – Fallou Full Torrent Magnet Download

Download Torrent Mission – Impossible – Fallou Movie Full in HD Result. Movie Mission – Impossible – Fallou Torrent Download full. Movie Mission – Impossible – Fallou torrent Magnet Download Full. Mission – Impossible – Fallou Full Movie Torrent Download And Magnet Download For your PC And Mobiles. Latest Movie Mission – Impossible – Fallou Download Link In Bottom.

Torrent And Magnet Links Below

DATI – TRAMA

Titolo: Mission: Impossible – Fallout

Nazione: USA, China, France, Norway

Anno: 2018

Genere: Action, Adventure, Thriller

Durata: 147 min

Regia: Christopher McQuarrie

Voti: IMDb (8.0/10), Rotten Tomatoes (97%), Metacritic (86/100)

Cast: Tom Cruise, Henry Cavill, Ving Rhames, Simon Pegg

Ethan Hunt (Tom Cruise) e il suo team IMF (Alec Baldwin, Simon Pegg, Ving Rhames) insieme ad alcuni alleati molto familiari (Rebecca Ferguson e Michelle Monaghan) sono impegnati in una corsa contro il tempo dopo una missione fallita.

IMMAGINI



REPORT

General

Unique ID : 306191062372488634659483802648268333246 (0xE65A40EA23D173BAEBCF2640C61960BE)

Complete name : C:UsersAdministratorDownloadsNewsFallout UHDMission – Impossible – Fallout (2018) UHDRip 2160p HEVC HDR ITA ENG AC3 ENG TrueHD Atmos 7.1 PirateMKV.mkv

Format : Matroska

Format version : Version 4

File size : 38.4 GiB

Duration : 2 h 27 min

Overall bit rate mode : Variable

Overall bit rate : 37.3 Mb/s

Movie name : Mission: Impossible – Fallout (2018) – PirateMKV

Encoded date : UTC 2018-11-28 07:28:25

Writing application : mkvmerge v28.2.0 (‘The Awakening’) 64-bit

Writing library : libebml v1.3.6 + libmatroska v1.4.9 / Lavf58.22.100

Copyright : Encoded by PirateMKV

Video

ID : 1

Format : HEVC

Format/Info : High Efficiency Video Coding

Commercial name : HDR10

Format profile : Main [email protected]@High

Codec ID : V_MPEGH/ISO/HEVC

Duration : 2 h 27 min

Bit rate : 30.9 Mb/s

Width : 3 840 pixels

Height : 2 026 pixels

Display aspect ratio : 1.895

Frame rate mode : Constant

Frame rate : 23.976 (24000/1001) FPS

Color space : YUV

Chroma subsampling : 4:2:0 (Type 2)

Bit depth : 10 bits

Bits/(Pixel*Frame) : 0.166

Stream size : 31.8 GiB (83%)

Writing library : x265 2.8+74-fd517ae68f93:[Windows][GCC 8.2.1][64 bit] 10bit

Encoding settings : cpuid=1111039 / frame-threads=3 / numa-pools=8 / wpp / no-pmode / no-pme / no-psnr / no-ssim / log-level=2 / input-csp=1 / input-res=3840×2026 / interlace=0 / total-frames=0 / level-idc=51 / high-tier=1 / uhd-bd=0 / ref=5 / no-allow-non-conformance / repeat-headers / annexb / aud / hrd / info / hash=0 / no-temporal-layers / no-open-gop / min-keyint=1 / keyint=24 / gop-lookahead=0 / bframes=8 / b-adapt=2 / b-pyramid / bframe-bias=0 / rc-lookahead=40 / lookahead-slices=0 / scenecut=40 / radl=0 / no-intra-refresh / ctu=64 / min-cu-size=8 / no-rect / no-amp / max-tu-size=32 / tu-inter-depth=4 / tu-intra-depth=4 / limit-tu=4 / rdoq-level=0 / dynamic-rd=0.00 / no-ssim-rd / signhide / no-tskip / nr-intra=0 / nr-inter=0 / no-constrained-intra / no-strong-intra-smoothing / max-merge=3 / limit-refs=3 / limit-modes / me=2 / subme=5 / merange=57 / temporal-mvp / weightp / weightb / no-analyze-src-pics / deblock=-3:-3 / no-sao / no-sao-non-deblock / rd=4 / no-early-skip / rskip / fast-intra / no-tskip-fast / no-cu-lossless / b-intra / no-splitrd-skip / rdpenalty=0 / psy-rd=2.00 / psy-rdoq=0.00 / no-rd-refine / no-lossless / cbqpoffs=-3 / crqpoffs=-3 / rc=crf / crf=21.0 / qcomp=0.70 / qpstep=4 / stats-write=0 / stats-read=0 / vbv-maxrate=160000 / vbv-bufsize=160000 / vbv-init=0.9 / crf-max=0.0 / crf-min=0.0 / ipratio=1.40 / pbratio=1.30 / aq-mode=3 / aq-strength=0.70 / no-cutree / zone-count=0 / no-strict-cbr / qg-size=32 / no-rc-grain / qpmax=69 / qpmin=0 / no-const-vbv / sar=1 / overscan=0 / videoformat=5 / range=0 / colorprim=9 / transfer=16 / colormatrix=9 / chromaloc=1 / chromaloc-top=2 / chromaloc-bottom=2 / display-window=0 / master-display=G(13250,34500)B(7500,3000)R(34000,16000)WP(15635,16450)L(10000000,1) / max-cll=0,0 / min-luma=0 / max-luma=1023 / log2-max-poc-lsb=8 / vui-timing-info / vui-hrd-info / slices=1 / no-opt-qp-pps / no-opt-ref-list-length-pps / no-multi-pass-opt-rps / scenecut-bias=0.05 / no-opt-cu-delta-qp / no-aq-motion / hdr / hdr-opt / no-dhdr10-opt / no-idr-recovery-sei / analysis-reuse-level=5 / scale-factor=0 / refine-intra=0 / refine-inter=0 / refine-mv=0 / no-limit-sao / ctu-info=0 / no-lowpass-dct / refine-mv-type=0 / copy-pic=1 / max-ausize-factor=1.0 / no-dynamic-refine / no-single-sei

Language : English

Default : Yes

Forced : No

Color range : Limited

Color primaries : BT.2020

Transfer characteristics : PQ

Matrix coefficients : BT.2020 non-constant

Mastering display color primaries : Display P3

Mastering display luminance : min: 0.0001 cd/m2, max: 1000 cd/m2

Audio #1

ID : 2

Format : AC-3

Format/Info : Audio Coding 3

Commercial name : Dolby Digital

Codec ID : A_AC3

Duration : 2 h 27 min

Bit rate mode : Constant

Bit rate : 640 kb/s

Channel(s) : 6 channels

Channel layout : L R C LFE Ls Rs

Sampling rate : 48.0 kHz

Frame rate : 31.250 FPS (1536 SPF)

Bit depth : 16 bits

Compression mode : Lossy

Stream size : 675 MiB (2%)

Title : AC3 5.1

Language : Italian

Service kind : Complete Main

Default : Yes

Forced : No

Audio #2

ID : 3

Format : MLP FBA 16-ch

Format/Info : Meridian Lossless Packing FBA with 16-channel presentation

Commercial name : Dolby TrueHD with Dolby Atmos

Codec ID : A_TRUEHD

Duration : 2 h 27 min

Bit rate mode : Variable

Bit rate : 5 026 kb/s

Maximum bit rate : 8 175 kb/s

Channel(s) : 8 channels

Channel layout : L R C LFE Ls Rs Lb Rb

Sampling rate : 48.0 kHz

Frame rate : 1 200.000 FPS (40 SPF)

Compression mode : Lossless

Stream size : 5.17 GiB (13%)

Title : TrueHD Atmos 7.1

Language : English

Default : No

Forced : No

Number of dynamic objects : 11

Bed channel count : 1 channel

Bed channel configuration : LFE

Audio #3

ID : 4

Format : AC-3

Format/Info : Audio Coding 3

Commercial name : Dolby Digital

Codec ID : A_AC3

Duration : 2 h 27 min

Bit rate mode : Constant

Bit rate : 640 kb/s

Channel(s) : 6 channels

Channel layout : L R C LFE Ls Rs

Sampling rate : 48.0 kHz

Frame rate : 31.250 FPS (1536 SPF)

Bit depth : 16 bits

Compression mode : Lossy

Stream size : 675 MiB (2%)

Title : AC3 5.1

Language : English

Service kind : Complete Main

Default : No

Forced : No

Text #1

ID : 5

Format : UTF-8

Codec ID : S_TEXT/UTF8

Codec ID/Info : UTF-8 Plain Text

Duration : 2 h 3 min

Bit rate : 0 b/s

Count of elements : 35

Stream size : 739 Bytes (0%)

Title : Forced

Language : Italian

Default : Yes

Forced : Yes

Text #2

ID : 6

Format : UTF-8

Codec ID : S_TEXT/UTF8

Codec ID/Info : UTF-8 Plain Text

Duration : 32 min 10 s

Bit rate : 1 b/s

Count of elements : 20

Stream size : 446 Bytes (0%)

Title : Forced

Language : English

Default : No

Forced : No

Text #3

ID : 7

Format : UTF-8

Codec ID : S_TEXT/UTF8

Codec ID/Info : UTF-8 Plain Text

Duration : 2 h 26 min

Bit rate : 40 b/s

Count of elements : 1395

Stream size : 43.3 KiB (0%)

Title : Normal

Language : Italian

Default : No

Forced : No

Text #4

ID : 8

Format : UTF-8

Codec ID : S_TEXT/UTF8

Codec ID/Info : UTF-8 Plain Text

Duration : 2 h 19 min

Bit rate : 54 b/s

Count of elements : 1876

Stream size : 55.6 KiB (0%)

Title : SDH

Language : English

Default : No

Forced : No

Menu

00:00:00.000 : en:Chapter 1

00:10:37.011 : en:Chapter 2

00:17:11.405 : en:Chapter 3

00:26:57.241 : en:Chapter 4

00:35:56.654 : en:Chapter 5

00:49:18.414 : en:Chapter 6

01:00:00.806 : en:Chapter 7

01:10:23.719 : en:Chapter 8

01:17:07.289 : en:Chapter 9

01:28:28.470 : en:Chapter 10

01:39:09.652 : en:Chapter 11

01:46:26.547 : en:Chapter 12

01:55:45.564 : en:Chapter 13

02:03:10.592 : en:Chapter 14

02:14:00.908 : en:Chapter 15

02:19:48.088 : en:Chapter 16

GOOD DOWNLOAD

Mission – Impossible – FallouDownload Torrent Magnet

#Mission #Impossible #Fallou