Mission Impossible – 6 Movie Full Torrent Magnet Download

Download Torrent Mission Impossible – 6 Movie Movie Full in HD Result. Movie Mission Impossible – 6 Movie Torrent Download full. Movie Mission Impossible – 6 Movie torrent Magnet Download Full. Mission Impossible – 6 Movie Full Movie Torrent Download And Magnet Download For your PC And Mobiles. Latest Movie Mission Impossible – 6 Movie Download Link In Bottom.

Torrent And Magnet Links Below

Quote:

*****************************************************************

1. Mission. Impossible.1996. 720p.Bluray.x264DD 2.0 Hindi+DD 5.1 English.LLG

*******************SCREENSHOTS(Click to enlarge)*******************

*******************************MEDIAINFO****************************

Mission. Impossible.1996. 720p.Bluray.x264DD 2.0 Hindi+DD 5.1 English.LLG.mp4

Format                                   : MPEG-4

Format profile                           : Base Media

Codec ID                                 : isom (isom/iso2/avc1/mp41)

File size                                : 1.35 GiB

Duration                                 : 1 h 50 min

Overall bit rate mode                    : Variable

Overall bit rate                         : 1 757 kb/s

Video

ID                                       : 1

Format                                   : AVC

Format/Info                              : Advanced Video Codec

Format profile                           : [email protected]
Format settings                          : CABAC / 1 Ref Frames

Format settings, CABAC                   : Yes

Format settings, Reference frames        : 1 frame

Codec ID                                 : avc1

Codec ID/Info                            : Advanced Video Coding

Duration                                 : 1 h 50 min

Bit rate mode                            : Variable

Bit rate                                 : 1 500 kb/s

Width                                    : 1 280 pixels

Height                                   : 530 pixels

Display aspect ratio                     : 2.40:1

Original display aspect ratio            : 2.40:1

Frame rate mode                          : Constant

Frame rate                               : 23.976 (23976/1000) FPS

Color space                              : YUV

Chroma subsampling                       : 4:2:0

Bit depth                                : 8 bits

Scan type                                : Progressive

Bits/(Pixel*Frame)                       : 0.092

Stream size                              : 1.15 GiB (85%)

Audio #1

ID                                       : 2

Format                                   : AAC LC

Codec ID                                 : mp4a-40-2

Duration                                 : 1 h 50 min

Bit rate mode                            : Constant

Bit rate                                 : 129 kb/s

Channel(s)                               : 2 channels

Channel layout                           : L R

Sampling rate                            : 48.0 kHz

Frame rate                               : 46.875 FPS (1024 SPF)

Compression mode                         : Lossy

Stream size                              : 101 MiB (7%)

Language                                 : Hindi

Default                                  : Yes

Alternate group                          : 1

Audio #2

ID                                       : 3

Format                                   : AAC LC

Codec ID                                 : mp4a-40-2

Duration                                 : 1 h 50 min

Bit rate mode                            : Constant

Bit rate                                 : 128 kb/s

Channel(s)                               : 2 channels

Channel layout                           : L R

Sampling rate                            : 48.0 kHz

Frame rate                               : 46.875 FPS (1024 SPF)

Compression mode                         : Lossy

Stream size                              : 101 MiB (7%)

Language                                 : English

Default                                  : No

Alternate group                          : 1

********************************************************

2.Mission – Impossible II.2000.720p. Bluray.x264.DD 2.0 Hindi + DD 5.1 English.LLG

*******************SCREENSHOTS(Click to enlarge)*******************

*******************************MEDIAINFO****************************

Mission – Impossible II.2000.720p. Bluray.x264.DD 2.0 Hindi + DD 5.1 English.LLG.mp4

Format                                   : MPEG-4

Format profile                           : Base Media

Codec ID                                 : isom (isom/iso2/avc1/mp41)

File size                                : 1.52 GiB

Duration                                 : 2 h 3 min

Overall bit rate mode                    : Variable

Overall bit rate                         : 1 758 kb/s

Video

ID                                       : 1

Format                                   : AVC

Format/Info                              : Advanced Video Codec

Format profile                           : [email protected]
Format settings                          : CABAC / 1 Ref Frames

Format settings, CABAC                   : Yes

Format settings, Reference frames        : 1 frame

Codec ID                                 : avc1

Codec ID/Info                            : Advanced Video Coding

Duration                                 : 2 h 3 min

Bit rate mode                            : Variable

Bit rate                                 : 1 500 kb/s

Width                                    : 1 280 pixels

Height                                   : 528 pixels

Display aspect ratio                     : 2.40:1

Original display aspect ratio            : 2.40:1

Frame rate mode                          : Constant

Frame rate                               : 23.976 (23976/1000) FPS

Color space                              : YUV

Chroma subsampling                       : 4:2:0

Bit depth                                : 8 bits

Scan type                                : Progressive

Bits/(Pixel*Frame)                       : 0.093

Stream size                              : 1.29 GiB (85%)

Audio #1

ID                                       : 2

Format                                   : AAC LC

Codec ID                                 : mp4a-40-2

Duration                                 : 2 h 3 min

Duration_LastFrame                       : -11 ms

Bit rate mode                            : Constant

Bit rate                                 : 128 kb/s

Channel(s)                               : 2 channels

Channel layout                           : L R

Sampling rate                            : 48.0 kHz

Frame rate                               : 46.875 FPS (1024 SPF)

Compression mode                         : Lossy

Stream size                              : 114 MiB (7%)

Language                                 : Hindi

Default                                  : Yes

Alternate group                          : 1

Audio #2

ID                                       : 3

Format                                   : AAC LC

Codec ID                                 : mp4a-40-2

Duration                                 : 2 h 3 min

Bit rate mode                            : Constant

Bit rate                                 : 128 kb/s

Channel(s)                               : 2 channels

Channel layout                           : L R

Sampling rate                            : 48.0 kHz

Frame rate                               : 46.875 FPS (1024 SPF)

Compression mode                         : Lossy

Stream size                              : 114 MiB (7%)

Title                                    : DD 5.1 English

Language                                 : English

Default                                  : No

Alternate group                          : 1

********************************************************

3.Mission – Impossible III.2006.720p.Bluray.x264.DD 5.1.Hindi.DD 5.1.English.LLG

*******************SCREENSHOTS(Click to enlarge)*******************

*******************************MEDIAINFO****************************

Mission – Impossible III.2006.720p.Bluray.x264.DD 5.1.Hindi.DD 5.1.English.LLG.mp4

Format                                   : MPEG-4

Format profile                           : Base Media

Codec ID                                 : isom (isom/iso2/avc1/mp41)

File size                                : 1.65 GiB

Duration                                 : 2 h 5 min

Overall bit rate mode                    : Variable

Overall bit rate                         : 1 887 kb/s

Video

ID                                       : 1

Format                                   : AVC

Format/Info                              : Advanced Video Codec

Format profile                           : [email protected]
Format settings                          : CABAC / 1 Ref Frames

Format settings, CABAC                   : Yes

Format settings, Reference frames        : 1 frame

Codec ID                                 : avc1

Codec ID/Info                            : Advanced Video Coding

Duration                                 : 2 h 5 min

Bit rate mode                            : Variable

Bit rate                                 : 1 500 kb/s

Width                                    : 1 280 pixels

Height                                   : 544 pixels

Display aspect ratio                     : 2.35:1

Original display aspect ratio            : 2.35:1

Frame rate mode                          : Constant

Frame rate                               : 23.976 (23976/1000) FPS

Color space                              : YUV

Chroma subsampling                       : 4:2:0

Bit depth                                : 8 bits

Scan type                                : Progressive

Bits/(Pixel*Frame)                       : 0.090

Stream size                              : 1.31 GiB (79%)

Audio #1

ID                                       : 2

Format                                   : AAC LC

Codec ID                                 : mp4a-40-2

Duration                                 : 2 h 5 min

Duration_LastFrame                       : -11 ms

Bit rate mode                            : Constant

Bit rate                                 : 128 kb/s

Channel(s)                               : 2 channels

Channel layout                           : L R

Sampling rate                            : 48.0 kHz

Frame rate                               : 46.875 FPS (1024 SPF)

Compression mode                         : Lossy

Stream size                              : 115 MiB (7%)

Language                                 : Hindi

Default                                  : Yes

Audio #2

ID                                       : 3

Format                                   : AAC LC

Codec ID                                 : mp4a-40-2

Duration                                 : 2 h 5 min

Duration_LastFrame                       : -11 ms

Bit rate mode                            : Constant

Bit rate                                 : 129 kb/s

Channel(s)                               : 2 channels

Channel layout                           : L R

Sampling rate                            : 48.0 kHz

Frame rate                               : 46.875 FPS (1024 SPF)

Compression mode                         : Lossy

Stream size                              : 115 MiB (7%)

Language                                 : Hindi

Default                                  : No

Alternate group                          : 1

Audio #3

ID                                       : 4

Format                                   : AAC LC

Codec ID                                 : mp4a-40-2

Duration                                 : 2 h 5 min

Bit rate mode                            : Constant

Bit rate                                 : 128 kb/s

Channel(s)                               : 2 channels

Channel layout                           : L R

Sampling rate                            : 48.0 kHz

Frame rate                               : 46.875 FPS (1024 SPF)

Compression mode                         : Lossy

Stream size                              : 115 MiB (7%)

Title                                    : DD 5.1 English

Language                                 : English

Default                                  : No

Alternate group                          : 1

********************************************************

4.Mission Impossible – Ghost Protocol.2011.720p.Bluray.x264.Hindi.English.LLG

*******************SCREENSHOTS(Click to enlarge)*******************

*******************************MEDIAINFO****************************

Mission Impossible – Ghost Protocol.2011.720p.Bluray.x264.Hindi.English.LLG.mp4

Format                                   : MPEG-4

Format profile                           : Base Media

Codec ID                                 : isom (isom/iso2/avc1/mp41)

File size                                : 1.46 GiB

Duration                                 : 2 h 12 min

Overall bit rate mode                    : Variable

Overall bit rate                         : 1 568 kb/s

Video

ID                                       : 1

Format                                   : AVC

Format/Info                              : Advanced Video Codec

Format profile                           : [email protected]
Format settings                          : CABAC / 1 Ref Frames

Format settings, CABAC                   : Yes

Format settings, Reference frames        : 1 frame

Codec ID                                 : avc1

Codec ID/Info                            : Advanced Video Coding

Duration                                 : 2 h 12 min

Bit rate mode                            : Variable

Bit rate                                 : 878 kb/s

Maximum bit rate                         : 900 kb/s

Width                                    : 1 280 pixels

Height                                   : 532 pixels

Display aspect ratio                     : 2.40:1

Original display aspect ratio            : 2.40:1

Frame rate mode                          : Constant

Frame rate                               : 23.976 (23976/1000) FPS

Color space                              : YUV

Chroma subsampling                       : 4:2:0

Bit depth                                : 8 bits

Scan type                                : Progressive

Bits/(Pixel*Frame)                       : 0.054

Stream size                              : 835 MiB (56%)

Audio #1

ID                                       : 2

Format                                   : AAC LC

Codec ID                                 : mp4a-40-2

Duration                                 : 2 h 12 min

Duration_LastFrame                       : -11 ms

Bit rate mode                            : Constant

Bit rate                                 : 341 kb/s

Channel(s)                               : 6 channels

Channel layout                           : C L R Ls Rs LFE

Sampling rate                            : 48.0 kHz

Frame rate                               : 46.875 FPS (1024 SPF)

Compression mode                         : Lossy

Stream size                              : 324 MiB (22%)

Language                                 : Hindi

Default                                  : Yes

Alternate group                          : 1

Audio #2

ID                                       : 3

Format                                   : AAC LC

Codec ID                                 : mp4a-40-2

Duration                                 : 2 h 12 min

Bit rate mode                            : Constant

Bit rate                                 : 341 kb/s

Channel(s)                               : 6 channels

Channel layout                           : C L R Ls Rs LFE

Sampling rate                            : 48.0 kHz

Frame rate                               : 46.875 FPS (1024 SPF)

Compression mode                         : Lossy

Stream size                              : 324 MiB (22%)

Title                                    : DD 5.1 English

Language                                 : English

Default                                  : No

Alternate group                          : 1

********************************************************

5.Mission Impossible – Rogue Nation.2015.720p.Bluray.x264.Hindi.English.LLG

*******************SCREENSHOTS(Click to enlarge)*******************

*******************************MEDIAINFO****************************

Mission Impossible – Rogue Nation.2015.720p.Bluray.x264.Hindi.English.LLG.mp4

Format                                   : MPEG-4

Format profile                           : Base Media

Codec ID                                 : isom (isom/iso2/avc1/mp41)

File size                                : 1.45 GiB

Duration                                 : 2 h 11 min

Overall bit rate mode                    : Variable

Overall bit rate                         : 1 577 kb/s

Video

ID                                       : 1

Format                                   : AVC

Format/Info                              : Advanced Video Codec

Format profile                           : [email protected]
Format settings                          : CABAC / 1 Ref Frames

Format settings, CABAC                   : Yes

Format settings, Reference frames        : 1 frame

Codec ID                                 : avc1

Codec ID/Info                            : Advanced Video Coding

Duration                                 : 2 h 11 min

Bit rate mode                            : Variable

Bit rate                                 : 888 kb/s

Maximum bit rate                         : 900 kb/s

Width                                    : 1 280 pixels

Height                                   : 536 pixels

Display aspect ratio                     : 2.40:1

Frame rate mode                          : Constant

Frame rate                               : 23.976 (23976/1000) FPS

Color space                              : YUV

Chroma subsampling                       : 4:2:0

Bit depth                                : 8 bits

Scan type                                : Progressive

Bits/(Pixel*Frame)                       : 0.054

Stream size                              : 836 MiB (56%)

Audio #1

ID                                       : 2

Format                                   : AAC LC

Codec ID                                 : mp4a-40-2

Duration                                 : 2 h 11 min

Duration_LastFrame                       : -11 ms

Bit rate mode                            : Constant

Bit rate                                 : 340 kb/s

Channel(s)                               : 6 channels

Channel layout                           : C L R Ls Rs LFE

Sampling rate                            : 48.0 kHz

Frame rate                               : 46.875 FPS (1024 SPF)

Compression mode                         : Lossy

Stream size                              : 320 MiB (22%)

Language                                 : Hindi

Default                                  : Yes

Alternate group                          : 1

Audio #2

ID                                       : 3

Format                                   : AAC LC

Codec ID                                 : mp4a-40-2

Duration                                 : 2 h 11 min

Duration_LastFrame                       : -11 ms

Bit rate mode                            : Constant

Bit rate                                 : 341 kb/s

Channel(s)                               : 6 channels

Channel layout                           : C L R Ls Rs LFE

Sampling rate                            : 48.0 kHz

Frame rate                               : 46.875 FPS (1024 SPF)

Compression mode                         : Lossy

Stream size                              : 321 MiB (22%)

Title                                    : DD 5.1 English

Language                                 : English

Default                                  : No

Alternate group                          : 1

********************************************************

6.Mission Impossible – Fallout.2018.720p.Bluray. x264.Hindi.DD 5.1.English.LLG

*******************SCREENSHOTS(Click to enlarge)*******************

*******************************MEDIAINFO****************************

Mission Impossible – Fallout.2018.720p.Bluray. x264.Hindi.DD 5.1.English.LLG.mp4

Format                                   : MPEG-4

Format profile                           : Base Media

File size                                : 1.37 GiB

Duration                                 : 2 h 27 min

Overall bit rate mode                    : Variable

Overall bit rate                         : 1 328 kb/s

Video

ID                                       : 1

Format                                   : AVC

Format/Info                              : Advanced Video Codec

Format profile                           : [email protected]
Format settings                          : CABAC / 1 Ref Frames

Format settings, CABAC                   : Yes

Format settings, Reference frames        : 1 frame

Codec ID                                 : avc1

Codec ID/Info                            : Advanced Video Coding

Duration                                 : 2 h 27 min

Bit rate mode                            : Variable

Bit rate                                 : 639 kb/s

Maximum bit rate                         : 700 kb/s

Width                                    : 1 280 pixels

Height                                   : 674 pixels

Display aspect ratio                     : 1.897

Frame rate mode                          : Constant

Frame rate                               : 23.976 (23976/1000) FPS

Color space                              : YUV

Chroma subsampling                       : 4:2:0

Bit depth                                : 8 bits

Scan type                                : Progressive

Bits/(Pixel*Frame)                       : 0.031

Stream size                              : 674 MiB (48%)

Audio #1

ID                                       : 2

Format                                   : AAC LC

Codec ID                                 : mp4a-40-2

Duration                                 : 2 h 27 min

Bit rate mode                            : Constant

Bit rate                                 : 341 kb/s

Channel(s)                               : 6 channels

Channel layout                           : C L R Ls Rs LFE

Sampling rate                            : 48.0 kHz

Frame rate                               : 46.875 FPS (1024 SPF)

Compression mode                         : Lossy

Stream size                              : 359 MiB (26%)

Language                                 : Hindi

Default                                  : Yes

Alternate group                          : 1

Audio #2

ID                                       : 3

Format                                   : AAC LC

Codec ID                                 : mp4a-40-2

Duration                                 : 2 h 27 min

Bit rate mode                            : Constant

Bit rate                                 : 341 kb/s

Channel(s)                               : 6 channels

Channel layout                           : C L R Ls Rs LFE

Sampling rate                            : 48.0 kHz

Frame rate                               : 46.875 FPS (1024 SPF)

Compression mode                         : Lossy

Stream size                              : 359 MiB (26%)

Title                                    : DD 5.1 English

Language                                 : English

Default                                  : No

Alternate group                          : 1

********************************************************

Mission Impossible – 6 Movie Download Torrent Magnet

#Mission #Impossible #Movie