Mission – Impossible 3 (2006) Full Torrent Magnet Download

Download Torrent Mission – Impossible 3 (2006) Movie Full in HD Result. Movie Mission – Impossible 3 (2006) Torrent Download full. Movie Mission – Impossible 3 (2006) torrent Magnet Download Full. Mission – Impossible 3 (2006) Full Movie Torrent Download And Magnet Download For your PC And Mobiles. Latest Movie Mission – Impossible 3 (2006) Download Link In Bottom.

Torrent And Magnet Links Below

DATI – TRAMA

Titolo: Mission: Impossible III

Nazione: USA, Germany, China, Italy

Anno: 2006

Genere: Action, Adventure, Thriller

Durata: 126 min

Regia: J.J. Abrams

Voti: IMDb (6.9/10), Rotten Tomatoes (70%), Metacritic (66/100)

Cast: Tom Cruise, Philip Seymour Hoffman, Ving Rhames, Billy Crudup

Ethan Hunt, in procinto di sposarsi con Julia, ha deciso di ritirarsi dalla squadra operativa della IMF per dedicarsi esclusivamente all’addestramento di nuovi agenti. Acconsente tuttavia a compiere una missione a Berlino per recuperare l’agente Lindsay, che era stata una sua valida allieva. È l’inizio di una serie di fatti che lo vedranno costretto a rischiare tutto ciò che ha di più caro nella lotta contro Owen Davian, un trafficante di armi estremamente pericolose, in combutta con apparati deviati dello stesso IMF.

IMMAGINI



REPORT

General

Unique ID : 194671588378416574526774653290387038102 (0x92746256DD397C4FC94421507FD35F96)

Complete name : C:UsersAdministratorDownloadsOldMissionImpossible3Mission – Impossible 3 (2006) UHDRip 2160p HEVC HDR ITA ENG AC3 5.1 ENG TrueHD 5.1 PirateMKV.mkv

Format : Matroska

Format version : Version 4

File size : 21.0 GiB

Duration : 2 h 5 min

Overall bit rate mode : Variable

Overall bit rate : 23.9 Mb/s

Movie name : Mission: Impossible 3 (2006) – PirateMKV

Encoded date : UTC 2018-09-27 06:47:45

Writing application : mkvmerge v27.0.0 (‘Metropolis’) 64-bit

Writing library : libebml v1.3.6 + libmatroska v1.4.9 / Lavf58.18.101

Copyright : Encoded by PirateMKV

Video

ID : 1

Format : HEVC

Format/Info : High Efficiency Video Coding

Commercial name : HDR10

Format profile : Main [email protected]@High

Codec ID : V_MPEGH/ISO/HEVC

Duration : 2 h 5 min

Bit rate : 19.0 Mb/s

Width : 3 840 pixels

Height : 1 600 pixels

Display aspect ratio : 2.40:1

Frame rate mode : Constant

Frame rate : 23.976 (24000/1001) FPS

Color space : YUV

Chroma subsampling : 4:2:0 (Type 2)

Bit depth : 10 bits

Bits/(Pixel*Frame) : 0.129

Stream size : 16.7 GiB (80%)

Writing library : x265 2.8+66-88ee12651e30:[Windows][GCC 8.2.1][64 bit] 10bit

Encoding settings : cpuid=1111039 / frame-threads=3 / numa-pools=8 / wpp / no-pmode / no-pme / no-psnr / no-ssim / log-level=2 / input-csp=1 / input-res=3840×1600 / interlace=0 / total-frames=0 / level-idc=51 / high-tier=1 / uhd-bd=0 / ref=5 / no-allow-non-conformance / repeat-headers / annexb / aud / hrd / info / hash=0 / no-temporal-layers / no-open-gop / min-keyint=1 / keyint=24 / gop-lookahead=0 / bframes=8 / b-adapt=2 / b-pyramid / bframe-bias=0 / rc-lookahead=40 / lookahead-slices=0 / scenecut=40 / radl=0 / no-intra-refresh / ctu=64 / min-cu-size=8 / no-rect / no-amp / max-tu-size=32 / tu-inter-depth=4 / tu-intra-depth=4 / limit-tu=4 / rdoq-level=0 / dynamic-rd=0.00 / no-ssim-rd / signhide / no-tskip / nr-intra=0 / nr-inter=0 / no-constrained-intra / no-strong-intra-smoothing / max-merge=3 / limit-refs=3 / limit-modes / me=2 / subme=5 / merange=57 / temporal-mvp / weightp / weightb / no-analyze-src-pics / deblock=-3:-3 / no-sao / no-sao-non-deblock / rd=4 / no-early-skip / rskip / fast-intra / no-tskip-fast / no-cu-lossless / b-intra / no-splitrd-skip / rdpenalty=0 / psy-rd=2.00 / psy-rdoq=0.00 / no-rd-refine / no-lossless / cbqpoffs=-3 / crqpoffs=-3 / rc=crf / crf=21.6 / qcomp=0.70 / qpstep=4 / stats-write=0 / stats-read=0 / vbv-maxrate=160000 / vbv-bufsize=160000 / vbv-init=0.9 / crf-max=0.0 / crf-min=0.0 / ipratio=1.40 / pbratio=1.30 / aq-mode=3 / aq-strength=0.70 / no-cutree / zone-count=0 / no-strict-cbr / qg-size=32 / no-rc-grain / qpmax=69 / qpmin=0 / no-const-vbv / sar=1 / overscan=0 / videoformat=5 / range=0 / colorprim=9 / transfer=16 / colormatrix=9 / chromaloc=1 / chromaloc-top=2 / chromaloc-bottom=2 / display-window=0 / master-display=G(13250,34500)B(7500,3000)R(34000,16000)WP(15635,16450)L(10000000,1) / max-cll=0,0 / min-luma=0 / max-luma=1023 / log2-max-poc-lsb=8 / vui-timing-info / vui-hrd-info / slices=1 / no-opt-qp-pps / no-opt-ref-list-length-pps / no-multi-pass-opt-rps / scenecut-bias=0.05 / no-opt-cu-delta-qp / no-aq-motion / hdr / hdr-opt / no-dhdr10-opt / no-idr-recovery-sei / analysis-reuse-level=5 / scale-factor=0 / refine-intra=0 / refine-inter=0 / refine-mv=0 / no-limit-sao / ctu-info=0 / no-lowpass-dct / refine-mv-type=0 / copy-pic=1 / max-ausize-factor=1.0 / no-dynamic-refine / no-single-sei

Language : English

Default : Yes

Forced : No

Color range : Limited

Color primaries : BT.2020

Transfer characteristics : PQ

Matrix coefficients : BT.2020 non-constant

Mastering display color primaries : Display P3

Mastering display luminance : min: 0.0001 cd/m2, max: 1000 cd/m2

Audio #1

ID : 2

Format : AC-3

Format/Info : Audio Coding 3

Commercial name : Dolby Digital

Codec ID : A_AC3

Duration : 2 h 5 min

Bit rate mode : Constant

Bit rate : 640 kb/s

Channel(s) : 6 channels

Channel layout : L R C LFE Ls Rs

Sampling rate : 48.0 kHz

Frame rate : 31.250 FPS (1536 SPF)

Bit depth : 16 bits

Compression mode : Lossy

Stream size : 574 MiB (3%)

Title : AC3 5.1

Language : Italian

Service kind : Complete Main

Default : Yes

Forced : No

Audio #2

ID : 3

Format : MLP FBA

Format/Info : Meridian Lossless Packing FBA

Commercial name : Dolby TrueHD

Codec ID : A_TRUEHD

Duration : 2 h 5 min

Bit rate mode : Variable

Bit rate : 3 537 kb/s

Maximum bit rate : 5 184 kb/s

Channel(s) : 6 channels

Channel layout : L R C LFE Ls Rs

Sampling rate : 48.0 kHz

Frame rate : 1 200.000 FPS (40 SPF)

Compression mode : Lossless

Stream size : 3.10 GiB (15%)

Title : TrueHD5.1

Language : English

Default : No

Forced : No

Audio #3

ID : 4

Format : AC-3

Format/Info : Audio Coding 3

Commercial name : Dolby Digital

Codec ID : A_AC3

Duration : 2 h 5 min

Bit rate mode : Constant

Bit rate : 640 kb/s

Channel(s) : 6 channels

Channel layout : L R C LFE Ls Rs

Sampling rate : 48.0 kHz

Frame rate : 31.250 FPS (1536 SPF)

Bit depth : 16 bits

Compression mode : Lossy

Stream size : 574 MiB (3%)

Title : AC3 5.1

Language : English

Service kind : Complete Main

Default : No

Forced : No

Text #1

ID : 5

Format : UTF-8

Codec ID : S_TEXT/UTF8

Codec ID/Info : UTF-8 Plain Text

Duration : 1 h 2 min

Bit rate : 0 b/s

Count of elements : 5

Stream size : 210 Bytes (0%)

Title : Forced

Language : Italian

Default : Yes

Forced : Yes

Text #2

ID : 6

Format : UTF-8

Codec ID : S_TEXT/UTF8

Codec ID/Info : UTF-8 Plain Text

Duration : 29 min 40 s

Bit rate : 1 b/s

Count of elements : 9

Stream size : 320 Bytes (0%)

Title : Forced

Language : English

Default : No

Forced : No

Text #3

ID : 7

Format : UTF-8

Codec ID : S_TEXT/UTF8

Codec ID/Info : UTF-8 Plain Text

Duration : 2 h 4 min

Bit rate : 42 b/s

Count of elements : 1160

Stream size : 39.2 KiB (0%)

Title : Normal

Language : Italian

Default : No

Forced : No

Text #4

ID : 8

Format : UTF-8

Codec ID : S_TEXT/UTF8

Codec ID/Info : UTF-8 Plain Text

Duration : 1 h 57 min

Bit rate : 50 b/s

Count of elements : 1208

Stream size : 43.3 KiB (0%)

Title : Normal

Language : English

Default : No

Forced : No

Text #5

ID : 9

Format : UTF-8

Codec ID : S_TEXT/UTF8

Codec ID/Info : UTF-8 Plain Text

Duration : 2 h 2 min

Bit rate : 52 b/s

Count of elements : 1393

Stream size : 47.2 KiB (0%)

Title : SDH

Language : English

Default : No

Forced : No

Menu

00:00:00.000 : en:Count to Ten

00:04:02.451 : en:Engagement Party

00:12:57.860 : en:Agent Lindsey Farris

00:21:18.068 : en:Chopper Chase

00:26:32.299 : en:Intelligence

00:32:56.474 : en:Trust and Understanding

00:39:30.493 : en:The Vatican

00:46:56.439 : en:Finding Davian

00:51:44.310 : en:Identity Theft

00:57:34.868 : en:Dangerous Cargo

01:02:08.975 : en:Bridge Attack

01:09:06.642 : en:The Tables Turn

01:18:19.236 : en:Shanghai

01:23:31.381 : en:Skyscraper

01:27:35.083 : en:Night Flight

01:34:08.017 : en:It’s Complicated

01:42:43.449 : en:Mobile Navigator

01:51:10.831 : en:Point and Shoot

01:57:27.832 : en:Mission: Honeymoon

GOOD DOWNLOAD

Mission – Impossible 3 (2006)Download Torrent Magnet

#Mission #Impossible