Mission – Impossible 2 (2000) Full Torrent Magnet Download

Download Torrent Mission – Impossible 2 (2000) Movie Full in HD Result. Movie Mission – Impossible 2 (2000) Torrent Download full. Movie Mission – Impossible 2 (2000) torrent Magnet Download Full. Mission – Impossible 2 (2000) Full Movie Torrent Download And Magnet Download For your PC And Mobiles. Latest Movie Mission – Impossible 2 (2000) Download Link In Bottom.

Torrent And Magnet Links Below

DATI – TRAMA

Titolo: Mission: Impossible II

Nazione: USA, Germany

Anno: 2000

Genere: Action, Adventure, Thriller

Durata: 123 min

Regia: John Woo

Voti: IMDb (6.1/10), Metacritic (59/100)

Cast: Tom Cruise, Dougray Scott, Thandie Newton, Ving Rhames

L’agente Ethan Hunt è pronto a scendere in campo una seconda volta. Con al fianco il genio dell’informatica Luther Stickell e un’affascinante ladra nel cuore, la sua missione è quella di fermare il diffondersi di un micidiale virus informatico che minaccia di mettere in ginocchio il mondo.

IMMAGINI



REPORT

General

Unique ID : 118380955258633136913794336988024749824 (0x590F57B86B88B88DA921E7281CCF3F00)

Complete name : C:UsersAdministratorDownloadsOldMissionImpossible2Mission – Impossible 2 (2000) UHDRip 2160p HEVC HDR ITA ENG AC3 5.1 ENG TrueHD 5.1 PirateMKV.mkv

Format : Matroska

Format version : Version 4

File size : 13.8 GiB

Duration : 2 h 3 min

Overall bit rate mode : Variable

Overall bit rate : 16.0 Mb/s

Movie name : Mission: Impossible 2 (2000) – PirateMKV

Encoded date : UTC 2018-09-20 09:33:32

Writing application : mkvmerge v26.0.0 (‘In The Game’) 64-bit

Writing library : libebml v1.3.6 + libmatroska v1.4.9 / Lavf58.18.100

Copyright : Encoded by PirateMKV

Video

ID : 1

Format : HEVC

Format/Info : High Efficiency Video Coding

Commercial name : HDR10

Format profile : Main [email protected]@High

Codec ID : V_MPEGH/ISO/HEVC

Duration : 2 h 3 min

Bit rate : 11.1 Mb/s

Width : 3 840 pixels

Height : 1 632 pixels

Display aspect ratio : 2.35:1

Frame rate mode : Constant

Frame rate : 23.976 (24000/1001) FPS

Color space : YUV

Chroma subsampling : 4:2:0 (Type 2)

Bit depth : 10 bits

Bits/(Pixel*Frame) : 0.074

Stream size : 9.60 GiB (70%)

Writing library : x265 2.8+66-88ee12651e30:[Windows][GCC 8.2.1][64 bit] 10bit

Encoding settings : cpuid=1111039 / frame-threads=3 / numa-pools=8 / wpp / no-pmode / no-pme / no-psnr / no-ssim / log-level=2 / input-csp=1 / input-res=3840×1632 / interlace=0 / total-frames=0 / level-idc=51 / high-tier=1 / uhd-bd=0 / ref=5 / no-allow-non-conformance / repeat-headers / annexb / aud / hrd / info / hash=0 / no-temporal-layers / no-open-gop / min-keyint=1 / keyint=24 / gop-lookahead=0 / bframes=8 / b-adapt=2 / b-pyramid / bframe-bias=0 / rc-lookahead=40 / lookahead-slices=0 / scenecut=40 / radl=0 / no-intra-refresh / ctu=64 / min-cu-size=8 / no-rect / no-amp / max-tu-size=32 / tu-inter-depth=4 / tu-intra-depth=4 / limit-tu=4 / rdoq-level=0 / dynamic-rd=0.00 / no-ssim-rd / signhide / no-tskip / nr-intra=0 / nr-inter=0 / no-constrained-intra / no-strong-intra-smoothing / max-merge=3 / limit-refs=3 / limit-modes / me=2 / subme=5 / merange=57 / temporal-mvp / weightp / weightb / no-analyze-src-pics / deblock=-3:-3 / no-sao / no-sao-non-deblock / rd=4 / no-early-skip / rskip / fast-intra / no-tskip-fast / no-cu-lossless / b-intra / no-splitrd-skip / rdpenalty=0 / psy-rd=2.00 / psy-rdoq=0.00 / no-rd-refine / no-lossless / cbqpoffs=-3 / crqpoffs=-3 / rc=crf / crf=21.7 / qcomp=0.70 / qpstep=4 / stats-write=0 / stats-read=0 / vbv-maxrate=160000 / vbv-bufsize=160000 / vbv-init=0.9 / crf-max=0.0 / crf-min=0.0 / ipratio=1.40 / pbratio=1.30 / aq-mode=3 / aq-strength=0.70 / no-cutree / zone-count=0 / no-strict-cbr / qg-size=32 / no-rc-grain / qpmax=69 / qpmin=0 / no-const-vbv / sar=1 / overscan=0 / videoformat=5 / range=0 / colorprim=9 / transfer=16 / colormatrix=9 / chromaloc=1 / chromaloc-top=2 / chromaloc-bottom=2 / display-window=0 / master-display=G(13250,34500)B(7500,3000)R(34000,16000)WP(15635,16450)L(10000000,1) / max-cll=0,0 / min-luma=0 / max-luma=1023 / log2-max-poc-lsb=8 / vui-timing-info / vui-hrd-info / slices=1 / no-opt-qp-pps / no-opt-ref-list-length-pps / no-multi-pass-opt-rps / scenecut-bias=0.05 / no-opt-cu-delta-qp / no-aq-motion / hdr / hdr-opt / no-dhdr10-opt / no-idr-recovery-sei / analysis-reuse-level=5 / scale-factor=0 / refine-intra=0 / refine-inter=0 / refine-mv=0 / no-limit-sao / ctu-info=0 / no-lowpass-dct / refine-mv-type=0 / copy-pic=1 / max-ausize-factor=1.0 / no-dynamic-refine / no-single-sei

Language : English

Default : Yes

Forced : No

Color range : Limited

Color primaries : BT.2020

Transfer characteristics : PQ

Matrix coefficients : BT.2020 non-constant

Mastering display color primaries : Display P3

Mastering display luminance : min: 0.0001 cd/m2, max: 1000 cd/m2

Audio #1

ID : 2

Format : AC-3

Format/Info : Audio Coding 3

Commercial name : Dolby Digital

Codec ID : A_AC3

Duration : 2 h 3 min

Bit rate mode : Constant

Bit rate : 640 kb/s

Channel(s) : 6 channels

Channel layout : L R C LFE Ls Rs

Sampling rate : 48.0 kHz

Frame rate : 31.250 FPS (1536 SPF)

Bit depth : 16 bits

Compression mode : Lossy

Stream size : 566 MiB (4%)

Title : AC3 5.1

Language : Italian

Service kind : Complete Main

Default : Yes

Forced : No

Audio #2

ID : 3

Format : MLP FBA

Format/Info : Meridian Lossless Packing FBA

Commercial name : Dolby TrueHD

Codec ID : A_TRUEHD

Duration : 2 h 3 min

Bit rate mode : Variable

Bit rate : 3 490 kb/s

Maximum bit rate : 5 205 kb/s

Channel(s) : 6 channels

Channel layout : L R C LFE Ls Rs

Sampling rate : 48.0 kHz

Frame rate : 1 200.000 FPS (40 SPF)

Compression mode : Lossless

Stream size : 3.01 GiB (22%)

Title : TrueHD5.1

Language : English

Default : No

Forced : No

Audio #3

ID : 4

Format : AC-3

Format/Info : Audio Coding 3

Commercial name : Dolby Digital

Codec ID : A_AC3

Duration : 2 h 3 min

Bit rate mode : Constant

Bit rate : 640 kb/s

Channel(s) : 6 channels

Channel layout : L R C LFE Ls Rs

Sampling rate : 48.0 kHz

Frame rate : 31.250 FPS (1536 SPF)

Bit depth : 16 bits

Compression mode : Lossy

Stream size : 566 MiB (4%)

Title : AC3 5.1

Language : English

Service kind : Complete Main

Default : No

Forced : No

Text #1

ID : 5

Format : UTF-8

Codec ID : S_TEXT/UTF8

Codec ID/Info : UTF-8 Plain Text

Duration : 2 h 3 min

Bit rate : 34 b/s

Count of elements : 963

Stream size : 31.0 KiB (0%)

Title : Normal

Language : Italian

Default : No

Forced : No

Text #2

ID : 6

Format : UTF-8

Codec ID : S_TEXT/UTF8

Codec ID/Info : UTF-8 Plain Text

Duration : 1 h 57 min

Bit rate : 36 b/s

Count of elements : 936

Stream size : 31.4 KiB (0%)

Title : Normal

Language : English

Default : No

Forced : No

Text #3

ID : 7

Format : UTF-8

Codec ID : S_TEXT/UTF8

Codec ID/Info : UTF-8 Plain Text

Duration : 1 h 58 min

Bit rate : 39 b/s

Count of elements : 1064

Stream size : 33.9 KiB (0%)

Title : SDH

Language : English

Default : No

Forced : No

Menu

00:00:00.000 : en:Old Friend

00:05:57.023 : en:Holiday

00:10:39.347 : en:I See You Found It

00:18:03.416 : en:Catch Me

00:23:47.343 : en:Sean Ambrose

00:34:47.877 : en:A Proper Welcome

00:45:40.071 : en:Don’t Turn Around

00:56:08.407 : en:A Touch of the Flu

01:05:07.695 : en:Biocyte

01:11:38.961 : en:The Last Strain

01:18:24.742 : en:I Guess I Lied

01:25:59.905 : en:Supply and Demand

01:35:40.109 : en:Smile

01:40:16.802 : en:Race Against Time

01:49:33.692 : en:Mano a Mano

01:53:59.166 : en:Destroyed By Fire

01:58:58.590 : en:End Credits

GOOD DOWNLOAD

Mission – Impossible 2 (2000)Download Torrent Magnet

#Mission #Impossible