Miss.Sloane.Giochi.Di.Potere. Full Torrent Magnet Download

Download Torrent Miss.Sloane.Giochi.Di.Potere. Movie Full in HD Result. Movie Miss.Sloane.Giochi.Di.Potere. Torrent Download full. Movie Miss.Sloane.Giochi.Di.Potere. torrent Magnet Download Full. Miss.Sloane.Giochi.Di.Potere. Full Movie Torrent Download And Magnet Download For your PC And Mobiles. Latest Movie Miss.Sloane.Giochi.Di.Potere. Download Link In Bottom.

Torrent And Magnet Links Below


Miss Sloane – Giochi Di potere


Titolo originale: Miss Sloane

Genere: Drammatico, Thriller

Anno: 2016

Regia: John Madden

Attori: Jessica Chastain, Gugu Mbatha-Raw, Alison Pill, Mark Strong, John Lithgow, Michael Stuhlbarg, Jake Lacy, Sam Waterston, Douglas Smith, Dylan Baker, Ennis Esmer

Paese: USA

Durata: 132 min

Distribuzione: 01 Distribution e Leone Film Group

Sceneggiatura: Jonathan Perera

Fotografia: Sebastian Blenkov

Montaggio: Alexander Berner

Produzione: FilmNation Entertainment


Miss Sloane, il nuovo thriller politico del regista candidato Oscar John Madden, è la storia di una spietata lobbista sull’orlo dell’esaurimento, personale e professionale, che supera i limiti etici e legali pur di far approvare una controversa legge. Sollevando il velo sull’industria sotterranea e potente delle lobby, Miss Sloane porta alla luce le dinamiche e le strategie utilizzate per vincere al Congresso.

Brillante, sicura di sé e completamente priva di scrupoli, Elizabeth Sloane (Jessica Chastain) è una delle professioniste più potenti che briga dietro le quinte a Washington. Fiore all’occhiello di una società di lobbying della vecchia scuola capitanata da George Dupont (Sam Waterston), Miss Sloane è disposta a fare di tutto per i suoi clienti – anche se questo significa forzare le regole. Ma quando il capo della potente lobby delle armi si rivolge a lei per convincere l’elettorato femminile a opporsi a una legge che introdurrà nuove regole sulla vendita delle armi da fuoco, Sloane rifiuta di netto ed entra a far parte di un combattivo studio legale specializzato che rappresenta i sostenitori della legge. Insieme al CEO della società (Mark Strong) e a un gruppo di giovani e promettenti professionisti, Miss Sloane trama, manovra e manipola per arrivare a quella che promette essere una splendida vittoria. Ma il suo accanimento minaccia sia la sua carriera che le persone che le stanno a cuore. Compromessa, vulnerabile e sotto inchiesta da parte del Senato, Elizabeth Sloane potrebbe finalmente aver trovato pane per i suoi denti.




General

Unique ID : 207421690251316025519190095224831258184 (0x9C0BF6E55893F578A1E400F15AECAE48)

Complete name : Miss.Sloane.Giochi.Di.Potere.2016.iTA.ENG.AC3.SUB.iTA.ENG.BluRay.HEVC.1080p.x265.jeddak-MIRCrew.mkv

Format : Matroska

Format version : Version 2

File size : 2.88 GiB

Duration : 2 h 12 min

Overall bit rate : 3 105 kb/s

Movie name : Miss.Sloane.Giochi.Di.Potere.2016.iTA.ENG.AC3.SUB.iTA.ENG.BluRay.HEVC.1080p.x265.jeddak-MIRCrew

Encoded date : UTC 2021-05-27 09:22:00

Writing application : mkvmerge v5.6.0 (‘Kenya Kane’) built on May 27 2012 16:44:04

Writing library : libebml v1.2.3 + libmatroska v1.3.0 / Lavf58.29.100

Video

ID : 1

Format : HEVC

Format/Info : High Efficiency Video Coding

Format profile : [email protected]@Main

Codec ID : V_MPEGH/ISO/HEVC

Duration : 2 h 12 min

Bit rate : 2 147 kb/s

Width : 1 920 pixels

Height : 804 pixels

Display aspect ratio : 2.40:1

Frame rate mode : Constant

Frame rate : 24.000 FPS

Color space : YUV

Chroma subsampling : 4:2:0

Bit depth : 8 bits

Bits/(Pixel*Frame) : 0.058

Stream size : 1.99 GiB (69%)

Title : …::: jeddak MIRCrew :::…

Writing library : x265 3.2.1+1-b5c86a64bbbe:[Linux][GCC 9.2.0][64 bit] 8bit+10bit+12bit

Encoding settings : cpuid=1111039 / frame-threads=5 / wpp / no-pmode / no-pme / no-psnr / no-ssim / log-level=2 / input-csp=1 / input-res=1920×804 / interlace=0 / total-frames=0 / level-idc=40 / high-tier=1 / uhd-bd=0 / ref=3 / no-allow-non-conformance / no-repeat-headers / annexb / no-aud / no-hrd / info / hash=0 / no-temporal-layers / open-gop / min-keyint=24 / keyint=240 / gop-lookahead=0 / bframes=4 / b-adapt=2 / b-pyramid / bframe-bias=0 / rc-lookahead=20 / lookahead-slices=5 / scenecut=40 / radl=0 / no-splice / no-intra-refresh / ctu=64 / min-cu-size=8 / no-rect / no-amp / max-tu-size=32 / tu-inter-depth=1 / tu-intra-depth=1 / limit-tu=0 / rdoq-level=0 / dynamic-rd=0.00 / no-ssim-rd / signhide / no-tskip / nr-intra=0 / nr-inter=0 / no-constrained-intra / strong-intra-smoothing / max-merge=3 / limit-refs=1 / no-limit-modes / me=1 / subme=2 / merange=57 / temporal-mvp / no-hme / weightp / no-weightb / no-analyze-src-pics / deblock=0:0 / sao / no-sao-non-deblock / rd=3 / selective-sao=4 / early-skip / rskip / no-fast-intra / no-tskip-fast / no-cu-lossless / b-intra / no-splitrd-skip / rdpenalty=0 / psy-rd=2.00 / psy-rdoq=0.00 / no-rd-refine / no-lossless / cbqpoffs=0 / crqpoffs=0 / rc=abr / bitrate=2200 / qcomp=0.60 / qpstep=4 / stats-write=0 / stats-read=0 / ipratio=1.40 / pbratio=1.30 / aq-mode=2 / aq-strength=1.00 / cutree / zone-count=0 / no-strict-cbr / qg-size=32 / no-rc-grain / qpmax=69 / qpmin=0 / no-const-vbv / sar=1 / overscan=0 / videoformat=5 / range=0 / colorprim=1 / transfer=1 / colormatrix=1 / chromaloc=0 / display-window=0 / cll=0,0 / min-luma=0 / max-luma=255 / log2-max-poc-lsb=8 / vui-timing-info / vui-hrd-info / slices=1 / no-opt-qp-pps / no-opt-ref-list-length-pps / no-multi-pass-opt-rps / scenecut-bias=0.05 / no-opt-cu-delta-qp / no-aq-motion / no-hdr / no-hdr-opt / no-dhdr10-opt / no-idr-recovery-sei / analysis-reuse-level=5 / scale-factor=0 / refine-intra=0 / refine-inter=0 / refine-mv=1 / refine-ctu-distortion=0 / no-limit-sao / ctu-info=0 / no-lowpass-dct / refine-analysis-type=0 / copy-pic=1 / max-ausize-factor=1.0 / no-dynamic-refine / no-single-sei / no-hevc-aq / no-svt / no-field / qp-adaptation-range=1.00

Default : Yes

Forced : No

Color range : Limited

Color primaries : BT.709

Transfer characteristics : BT.709

Matrix coefficients : BT.709

Duration_Source : General_Duration

Audio #1

ID : 2

Format : AC-3

Format/Info : Audio Coding 3

Commercial name : Dolby Digital

Codec ID : A_AC3

Duration : 2 h 12 min

Bit rate mode : Constant

Bit rate : 448 kb/s

Channel(s) : 6 channels

Channel layout : L R C LFE Ls Rs

Sampling rate : 48.0 kHz

Frame rate : 31.250 FPS (1536 SPF)

Compression mode : Lossy

Delay relative to video : -5 ms

Stream size : 425 MiB (14%)

Title : iTA AC3 5.1

Language : Italian

Service kind : Complete Main

Default : Yes

Forced : No

Audio #2

ID : 3

Format : AC-3

Format/Info : Audio Coding 3

Commercial name : Dolby Digital

Codec ID : A_AC3

Duration : 2 h 12 min

Bit rate mode : Constant

Bit rate : 448 kb/s

Channel(s) : 6 channels

Channel layout : L R C LFE Ls Rs

Sampling rate : 48.0 kHz

Frame rate : 31.250 FPS (1536 SPF)

Compression mode : Lossy

Delay relative to video : -5 ms

Stream size : 425 MiB (14%)

Title : ENG AC3 5.1

Language : English

Service kind : Complete Main

Default : No

Forced : No

Text #1

ID : 4

Format : ASS

Codec ID : S_TEXT/ASS

Codec ID/Info : Advanced Sub Station Alpha

Duration : 2 h 6 min

Compression mode : Lossless

Title : iTA REGULAR

Language : Italian

Default : No

Forced : No

Text #2

ID : 5

Format : ASS

Codec ID : S_TEXT/ASS

Codec ID/Info : Advanced Sub Station Alpha

Duration : 2 h 6 min

Compression mode : Lossless

Title : iTA NON UDENTI

Language : Italian

Default : No

Forced : No

Text #3

ID : 6

Format : ASS

Codec ID : S_TEXT/ASS

Codec ID/Info : Advanced Sub Station Alpha

Duration : 2 h 6 min

Compression mode : Lossless

Title : ENG NON UDENTI

Language : English

Default : No

Forced : No

Menu

00:00:00.000 : :Capitolo 01

00:10:31.167 : :Capitolo 02

00:22:53.708 : :Capitolo 03

00:36:08.417 : :Capitolo 04

00:47:31.333 : :Capitolo 05

00:58:17.833 : :Capitolo 06

01:10:36.125 : :Capitolo 07

01:19:04.167 : :Capitolo 08

01:34:35.042 : :Capitolo 09

01:45:49.292 : :Capitolo 10

01:54:38.000 : :Capitolo 11

02:06:47.333 : :Capitolo 12

Miss.Sloane.Giochi.Di.Potere.Download Torrent Magnet

#MissSloaneGiochiDiPotere