Mirzapur (2020) S02 Complete Full Torrent Magnet Download

Download Torrent Mirzapur (2020) S02 Complete Movie Full in HD Result. Movie Mirzapur (2020) S02 Complete Torrent Download full. Movie Mirzapur (2020) S02 Complete torrent Magnet Download Full. Mirzapur (2020) S02 Complete Full Movie Torrent Download And Magnet Download For your PC And Mobiles. Latest Movie Mirzapur (2020) S02 Complete Download Link In Bottom.

Torrent And Magnet Links Below

Mirzapur (2020) S02 Complete 1080p AMZN WEBRip AVC (Untouched DDP 5.1 640Kbps) Hinid-Tamil-Telugu ESub www.RipsTracker.com

Code:

General

Complete name : Mirzapur S02 E01 DHENKU 1080p AMZN Web-Rip Untouched DDP 5.1

Format : Matroska

Format version : Version 4

File size : 1.44 GiB

Duration : 1 h 0 min

Overall bit rate : 3 387 kb/s

Encoded date : UTC 2021-02-14 04:51:37

Writing application : mkvmerge v53.0.0 (‘Fool’s Gold’) 64-bit

Writing library : libebml v1.4.1 + libmatroska v1.6.2

Video

ID : 1

Format : AVC

Format/Info : Advanced Video Codec

Format profile : [email protected]
Format settings : CABAC / 4 Ref Frames

Format settings, CABAC : Yes

Format settings, Reference : 4 frames

Codec ID : V_MPEG4/ISO/AVC

Duration : 1 h 0 min

Bit rate : 1 464 kb/s

Width : 1 920 pixels

Height : 1 080 pixels

Display aspect ratio : 16:9

Frame rate mode : Constant

Frame rate : 25.000 FPS

Color space : YUV

Chroma subsampling : 4:2:0

Bit depth : 8 bits

Scan type : Progressive

Bits/(Pixel*Frame) : 0.028

Stream size : 636 MiB (43%)

Default : Yes

Forced : No

Color range : Limited

Color primaries : BT.709

Transfer characteristics : BT.709

Matrix coefficients : BT.709

Audio #1

ID : 2

Format : E-AC-3

Format/Info : Enhanced AC-3

Commercial name : Dolby Digital Plus

Codec ID : A_EAC3

Duration : 1 h 0 min

Bit rate mode : Constant

Bit rate : 640 kb/s

Channel(s) : 6 channels

Channel layout : L R C LFE Ls Rs

Sampling rate : 48.0 kHz

Frame rate : 31.250 FPS (1536 SPF)

Compression mode : Lossy

Stream size : 278 MiB (19%)

Language : Telugu

Service kind : Complete Main

Default : No

Forced : No

Audio #2

ID : 3

Format : E-AC-3

Format/Info : Enhanced AC-3

Commercial name : Dolby Digital Plus

Codec ID : A_EAC3

Duration : 1 h 0 min

Bit rate mode : Constant

Bit rate : 640 kb/s

Channel(s) : 6 channels

Channel layout : L R C LFE Ls Rs

Sampling rate : 48.0 kHz

Frame rate : 31.250 FPS (1536 SPF)

Compression mode : Lossy

Stream size : 278 MiB (19%)

Language : Tamil

Service kind : Complete Main

Default : Yes

Forced : No

Audio #3

ID : 4

Format : E-AC-3

Format/Info : Enhanced AC-3

Commercial name : Dolby Digital Plus

Codec ID : A_EAC3

Duration : 1 h 0 min

Bit rate mode : Constant

Bit rate : 640 kb/s

Channel(s) : 6 channels

Channel layout : L R C LFE Ls Rs

Sampling rate : 48.0 kHz

Frame rate : 31.250 FPS (1536 SPF)

Compression mode : Lossy

Stream size : 278 MiB (19%)

Language : Hindi

Service kind : Complete Main

Default : No

Forced : No

Text

ID : 5

Format : UTF-8

Codec ID : S_TEXT/UTF8

Codec ID/Info : UTF-8 Plain Text

Duration : 58 min 28 s

Bit rate : 42 b/s

Count of elements : 702

Stream size : 18.1 KiB (0%)

Default : Yes

Forced : No

Creditstotmv






[/B]

Mirzapur (2020) S02 Complete Download Torrent Magnet

#Mirzapur #S02 #Complete