Minamata.2020.HDRip.XviD.B4ND Full Torrent Magnet Download

Download Torrent Minamata.2020.HDRip.XviD.B4ND Movie Full in HD Result. Movie Minamata.2020.HDRip.XviD.B4ND Torrent Download full. Movie Minamata.2020.HDRip.XviD.B4ND torrent Magnet Download Full. Minamata.2020.HDRip.XviD.B4ND Full Movie Torrent Download And Magnet Download For your PC And Mobiles. Latest Movie Minamata.2020.HDRip.XviD.B4ND Download Link In Bottom.

Torrent And Magnet Links Below

Minamata.2020.HDRip.XviD.B4ND1T69

Director: Andrew Levitas

Writers: David Kessler, Andrew Levitas

Stars: Akiko Iwase, Johnny Depp, Katherine Jenkins

Plot/Story:

War photographer W. Eugene Smith travels back to Japan where he documents the devastating effect of mercury poisoning in coastal communities.

General

Complete name : Minamata.2020.HDRip.XviD.B4ND1T69.avi

Format : AVI

Format/Info : Audio Video Interleave

File size : 927 MiB

Duration : 1 h 50 min

Overall bit rate : 1 172 kb/s

Subtitles : Yes…Hardcoded for non-English parts + file included

Video

ID : 0

Format : MPEG-4 Visual

Format profile : Advanced [email protected]
Format settings, BVOP : 2

Format settings, QPel : No

Format settings, GMC : No warppoints

Format settings, Matrix : Default (H.263)

Codec ID : XVID

Codec ID/Hint : XviD

Duration : 1 h 50 min

Bit rate : 1 030 kb/s

Width : 720 pixels

Height : 384 pixels

Display aspect ratio : 1.85:1

Frame rate : 25.000 FPS

Color space : YUV

Chroma subsampling : 4:2:0

Bit depth : 8 bits

Scan type : Progressive

Compression mode : Lossy

Bits/(Pixel*Frame) : 0.149

Stream size : 815 MiB (88%)

Writing library : XviD 64

Audio

ID : 1

Format : MPEG Audio

Format version : Version 1

Format profile : Layer 3

Codec ID : 55

Codec ID/Hint : MP3

Duration : 1 h 50 min

Bit rate mode : Constant

Bit rate : 128 kb/s

Channel(s) : 2 channels

Sampling rate : 48.0 kHz

Compression mode : Lossy

Stream size : 101 MiB (11%)

Alignment : Aligned on interleaves

Interleave, duration : 24 ms (0.60 video frame)

Screenshots:









Please Seed For As Long As Possible

Or At Least 1:1 Ratio…Thanks

Enjoy Peeps

Minamata.2020.HDRip.XviD.B4NDDownload Torrent Magnet

#Minamata2020HDRipXviDB4ND