Mélodie en sous-sol (1963) BD Full Torrent Magnet Download

Download Torrent Mélodie en sous-sol (1963) BD Movie Full in HD Result. Movie Mélodie en sous-sol (1963) BD Torrent Download full. Movie Mélodie en sous-sol (1963) BD torrent Magnet Download Full. Mélodie en sous-sol (1963) BD Full Movie Torrent Download And Magnet Download For your PC And Mobiles. Latest Movie Mélodie en sous-sol (1963) BD Download Link In Bottom.

Torrent And Magnet Links Below

IMDB

Code:


General

Complete name : Mélodie.en.sous-sol.(1963).BDRip.1080p.AAC.[Borsalino].DE.srt

Format : SubRip

File size : 134 KiB

Text

Format : SubRip

Compression mode : Lossless

General

Complete name : Mélodie.en.sous-sol.(1963).BDRip.1080p.AAC.[Borsalino].EL.srt

Format : SubRip

File size : 92.2 KiB

Text

Format : SubRip

Compression mode : Lossless

General

Complete name : Mélodie.en.sous-sol.(1963).BDRip.1080p.AAC.[Borsalino].EN.srt

Format : SubRip

File size : 91.8 KiB

Text

Format : SubRip

Compression mode : Lossless

General

Complete name : Mélodie.en.sous-sol.(1963).BDRip.1080p.AAC.[Borsalino].ES.srt

Format : SubRip

File size : 89.8 KiB

Text

Format : SubRip

Compression mode : Lossless

General

Complete name : Mélodie.en.sous-sol.(1963).BDRip.1080p.AAC.[Borsalino].FR.srt

Format : SubRip

File size : 103 KiB

Text

Format : SubRip

Compression mode : Lossless

General

Complete name : Mélodie.en.sous-sol.(1963).BDRip.1080p.AAC.[Borsalino].NL.srt

Format : SubRip

File size : 89.7 KiB

Text

Format : SubRip

Compression mode : Lossless

General

Complete name : Mélodie.en.sous-sol.(1963).BDRip.1080p.AAC.[Borsalino].RO.srt

Format : SubRip

File size : 91.4 KiB

Text

Format : SubRip

Compression mode : Lossless

General

Complete name : Mélodie.en.sous-sol.(1963).BDRip.1080p.AAC.[Borsalino].mkv

Format : Matroska

Format version : Version 4

File size : 8.57 GiB

Duration : 2 h 1 min

Overall bit rate : 10.1 Mb/s

Movie name : Mélodie.en.sous-sol.(1963).BDRip.1080p.AAC.[Borsalino]
Writing application : mkvmerge v56.1.0 (‘My Friend’) 64-bit

Writing library : libebml v1.4.2 + libmatroska v1.6.4

Video

ID : 1

Format : AVC

Format/Info : Advanced Video Codec

Format profile : [email protected]
Format settings : CABAC / 2 Ref Frames

Format settings, CABAC : Yes

Format settings, Reference frames : 2 frames

Codec ID : V_MPEG4/ISO/AVC

Duration : 2 h 1 min

Bit rate : 10.0 Mb/s

Width : 1 920 pixels

Height : 1 080 pixels

Display aspect ratio : 16:9

Frame rate mode : Constant

Frame rate : 30.000 FPS

Color space : YUV

Chroma subsampling : 4:2:0

Bit depth : 8 bits

Scan type : Progressive

Bits/(Pixel*Frame) : 0.161

Stream size : 8.46 GiB (99%)

Title : French

Language : French

Default : Yes

Forced : No

Audio

ID : 2

Format : AAC LC

Format/Info : Advanced Audio Codec Low Complexity

Codec ID : A_AAC-2

Duration : 2 h 1 min

Bit rate : 128 kb/s

Channel(s) : 2 channels

Channel layout : L R

Sampling rate : 44.1 kHz

Frame rate : 43.066 FPS (1024 SPF)

Compression mode : Lossy

Delay relative to video : -67 ms

Stream size : 111 MiB (1%)

Title : French

Language : French

Default : Yes

Forced : No

Spoken language

Subtitles (srt files)


















Mélodie en sous-sol (1963) BDDownload Torrent Magnet

#Mélodie #soussol