Meet.Joe.Black.1998.BRRip.Xvi Full Torrent Magnet Download

Download Torrent Meet.Joe.Black.1998.BRRip.Xvi Movie Full in HD Result. Movie Meet.Joe.Black.1998.BRRip.Xvi Torrent Download full. Movie Meet.Joe.Black.1998.BRRip.Xvi torrent Magnet Download Full. Meet.Joe.Black.1998.BRRip.Xvi Full Movie Torrent Download And Magnet Download For your PC And Mobiles. Latest Movie Meet.Joe.Black.1998.BRRip.Xvi Download Link In Bottom.

Torrent And Magnet Links Below

Meet.Joe.Black.1998.BRRip.XviD.B4ND1T69

Director: Martin Brest

Writers: Ron Osborn (screenplay), Jeff Reno (screenplay)

Stars: Brad Pitt, Anthony Hopkins, Claire Forlani

Plot/Story:

Death, who takes the form of a young man, asks a media mogul to act as a guide to teach him about life on Earth, and in the process, he falls in love with his guide’s daughter.

General

Complete name : Meet.Joe.Black.1998.BRRip.XviD.B4ND1T69.avi

Format : AVI

Format/Info : Audio Video Interleave

File size : 1.80 GiB

Duration : 3 h 0 min

Overall bit rate : 1 429 kb/s

Subtitles : Yes…Included(HI)

Video

ID : 0

Format : MPEG-4 Visual

Format profile : Advanced [email protected]
Format settings, BVOP : 2

Format settings, QPel : No

Format settings, GMC : No warppoints

Format settings, Matrix : Default (H.263)

Codec ID : XVID

Codec ID/Hint : XviD

Duration : 3 h 0 min

Bit rate : 1 288 kb/s

Width : 720 pixels

Height : 384 pixels

Display aspect ratio : 1.85:1

Frame rate : 23.976 (24000/1001) FPS

Color space : YUV

Chroma subsampling : 4:2:0

Bit depth : 8 bits

Scan type : Progressive

Compression mode : Lossy

Bits/(Pixel*Frame) : 0.194

Stream size : 1.62 GiB (90%)

Writing library : XviD 64

Audio

ID : 1

Format : MPEG Audio

Format version : Version 1

Format profile : Layer 3

Codec ID : 55

Codec ID/Hint : MP3

Duration : 3 h 0 min

Bit rate mode : Constant

Bit rate : 128 kb/s

Channel(s) : 2 channels

Sampling rate : 48.0 kHz

Compression mode : Lossy

Stream size : 165 MiB (9%)

Alignment : Aligned on interleaves

Interleave, duration : 24 ms (0.58 video frame)

Screenshots:









Please Seed For As Long As Possible

Or At Least 1:1 Ratio…Thanks

Enjoy Peeps

Meet.Joe.Black.1998.BRRip.XviDownload Torrent Magnet

#MeetJoeBlack1998BRRipXvi