Maximum Risk 1996 1080p BLURA Full Torrent Magnet Download

Download Torrent Maximum Risk 1996 1080p BLURA Movie Full in HD Result. Movie Maximum Risk 1996 1080p BLURA Torrent Download full. Movie Maximum Risk 1996 1080p BLURA torrent Magnet Download Full. Maximum Risk 1996 1080p BLURA Full Movie Torrent Download And Magnet Download For your PC And Mobiles. Latest Movie Maximum Risk 1996 1080p BLURA Download Link In Bottom.

Torrent And Magnet Links Below

Maximum Risk 1996 1080p BLURAY REMUX TURKiSH SUB AVC TrueHD 5.1 – iCMAL [TGx]

Parents Guide

MPAA Rated R for strong violence, and for some sexuality and language

Certification
Argentina:16 Australia:M Brazil:14 Canada:14A Denmark:15 Finland:K-16 France:12 Germany:16 (theatrical rating, cut) Germany:18 (video rating, uncut) Germany:16 (2020, re-rating, uncut) Hong Kong:III Iceland:16 Ireland:18 Italy:T Netherlands:16 New Zealand:M Norway:15 (DVD rating) Norway:18 (video rating) Norway:18 (1997, cinema rating) Peru:18 Philippines:PG-13 Portugal:M/12 Singapore:M18 South Korea:18 Spain:18 Sweden:15 United Kingdom:18 (cut) United States:TV-14 (LSV, TV Rating.) United States:R (certificate #34331)

A cop/flic discovers that he had a twin who just got murdered in Nice, France. In order to find out who did it, he takes his place including the cute girlfriend in Little Odessa, NYC.

Director : Ringo Lam

Writer : Larry Ferguson

Stars : Jean-Claude Van Damme, Natasha Henstridge, Jean-Hugues Anglade

Storyline
Alain Moreau didn’t know he had a brother, even a twin brother – until he found him laying dead on the street. To reveal the truth about his twin, he now has to continue in his footsteps – he simply has to become Mikhail, travel across the Atlantic and sink into the world that ended his brothers days. Here he meets his brothers beautiful girlfriend Alex, who doesn’t suspect a thing for starters. She works as a waitress in a pub, owned by the Russian mafia, and when they find out Alain’s true intentions, all hell breaks out.

Maximum Risk 1996 1080p BLURAY REMUX TURKiSH SUB AVC TrueHD 5.1 – iCMAL [TGx]Maximum Risk 1996 1080p BLURAY REMUX TURKiSH SUB AVC TrueHD 5.1 – iCMAL [TGx].mkv

Format : Matroska

Format version : Version 4

File size : 19.8 GiB

Duration : 1 h 40 min

Overall bit rate mode : Variable

Overall bit rate : 28.1 Mb/s

Movie name : Maximum Risk 1996 1080p BLURAY REMUX TURKiSH SUB AVC TrueHD 5.1 – iCMAL [TGx]
Encoded date : UTC 2021-01-29 11:05:02

Writing application : mkvmerge v10.0.0 (‘To Drown In You’) 64bit

Writing library : libebml v1.3.4 + libmatroska v1.4.5

Video

ID : 1

Format : AVC

Format/Info : Advanced Video Codec

Format profile : [email protected]
Format settings : CABAC / 2 Ref Frames

Format settings, CABAC : Yes

Format settings, Reference frames : 2 frames

Codec ID : V_MPEG4/ISO/AVC

Duration : 1 h 40 min

Bit rate mode : Variable

Bit rate : 26.2 Mb/s

Width : 1 920 pixels

Height : 1 080 pixels

Display aspect ratio : 16:9

Frame rate mode : Constant

Frame rate : 23.976 (24000/1001) FPS

Color space : YUV

Chroma subsampling : 4:2:0

Bit depth : 8 bits

Scan type : Progressive

Bits/(Pixel*Frame) : 0.527

Stream size : 18.4 GiB (93%)

Title : Bu REMUX iCMAL YAPTI

Default : Yes

Forced : No

Audio

ID : 2

Format : MLP FBA

Format/Info : Meridian Lossless Packing FBA

Commercial name : Dolby TrueHD

Codec ID : A_TRUEHD

Duration : 1 h 40 min

Bit rate mode : Variable

Bit rate : 1 889 kb/s

Maximum bit rate : 3 267 kb/s

Channel(s) : 6 channels

Channel layout : L R C LFE Ls Rs

Sampling rate : 48.0 kHz

Frame rate : 1 200.000 FPS (40 SPF)

Compression mode : Lossless

Stream size : 1.33 GiB (7%)

Title : Bu REMUX iCMAL YAPTI

Language : English

Default : Yes

Forced : No

Text #1

ID : 3

Format : PGS

Muxing mode : zlib

Codec ID : S_HDMV/PGS

Codec ID/Info : Picture based subtitle format used on BDs/HD-DVDs

Duration : 1 h 31 min

Bit rate : 6 899 b/s

Count of elements : 986

Stream size : 4.52 MiB (0%)

Title : Bu REMUX iCMAL YAPTI

Language : English

Default : Yes

Forced : No

Text #2

ID : 4

Format : PGS

Muxing mode : zlib

Codec ID : S_HDMV/PGS

Codec ID/Info : Picture based subtitle format used on BDs/HD-DVDs

Duration : 1 h 33 min

Bit rate : 6 611 b/s

Count of elements : 1010

Stream size : 4.44 MiB (0%)

Title : Bu REMUX iCMAL YAPTI

Language : Turkish

Default : No

Forced : No

Maximum Risk 1996 1080p BLURADownload Torrent Magnet

#Maximum #Risk #1080p #BLURA