Matar.a.un.Muerto.2019.LEGEND Full Torrent Magnet Download

Download Torrent Matar.a.un.Muerto.2019.LEGEND Movie Full in HD Result. Movie Matar.a.un.Muerto.2019.LEGEND Torrent Download full. Movie Matar.a.un.Muerto.2019.LEGEND torrent Magnet Download Full. Matar.a.un.Muerto.2019.LEGEND Full Movie Torrent Download And Magnet Download For your PC And Mobiles. Latest Movie Matar.a.un.Muerto.2019.LEGEND Download Link In Bottom.

Torrent And Magnet Links Below

Release: Matar.a.un.Muerto.2019.LEGENDADO.1080p.WEB.x264-gooz

IMDB: https://www.imdb.com/title/tt9248118

Subtitle: Brazilian Portuguese (hardcoded)

Plot: In 1978, Paraguay lives a dictatorship and, clandestinely, two men bury corpses. But one day they find a man who is still breathing. They have to kill him, but they never killed anyone before. Official submission of Paraguay for the ‘Best International Feature Film’ category of the 93rd Academy Awards in 2021.

General

Complete name : Matar.a.un.Muerto.2019.LEGENDADO.1080p.WEB.x264-gooz.mkv

Format : Matroska

Format version : Version 4

File size : 1.41 GiB

Duration : 1 h 26 min

Overall bit rate : 2 350 kb/s

Encoded date : UTC 2020-12-28 23:58:51

Writing application : mkvmerge v49.0.0 (‘Sick Of Losing Soulmates’) 64-bit

Writing library : libebml v1.4.0 + libmatroska v1.6.1

Comment : Ripped by gooz

Video

ID : 1

Format : AVC

Format/Info : Advanced Video Codec

Format profile : [email protected]
Format settings : CABAC / 5 Ref Frames

Format settings, CABAC : Yes

Format settings, Reference : 5 frames

Codec ID : V_MPEG4/ISO/AVC

Duration : 1 h 26 min

Bit rate : 2 254 kb/s

Width : 1 920 pixels

Height : 1 080 pixels

Display aspect ratio : 16:9

Frame rate mode : Constant

Frame rate : 24.000 FPS

Color space : YUV

Chroma subsampling : 4:2:0

Bit depth : 8 bits

Scan type : Progressive

Bits/(Pixel*Frame) : 0.045

Stream size : 1.36 GiB (96%)

Default : Yes

Forced : No

Audio

ID : 2

Format : AAC LC

Format/Info : Advanced Audio Codec Low Complexity

Codec ID : A_AAC-2

Duration : 1 h 26 min

Bit rate : 93.4 kb/s

Channel(s) : 2 channels

Channel layout : L R

Sampling rate : 48.0 kHz

Frame rate : 46.875 FPS (1024 SPF)

Compression mode : Lossy

Delay relative to video : 4 ms

Stream size : 57.5 MiB (4%)

Language : Spanish

Default : Yes

Forced : No

SCREENSHOTS:





Matar.a.un.Muerto.2019.LEGENDDownload Torrent Magnet

#MataraunMuerto2019LEGEND