Master (2021) Tamil (1080p HQ Full Torrent Magnet Download

Download Torrent Master (2021) Tamil (1080p HQ Movie Full in HD Result. Movie Master (2021) Tamil (1080p HQ Torrent Download full. Movie Master (2021) Tamil (1080p HQ torrent Magnet Download Full. Master (2021) Tamil (1080p HQ Full Movie Torrent Download And Magnet Download For your PC And Mobiles. Latest Movie Master (2021) Tamil (1080p HQ Download Link In Bottom.

Torrent And Magnet Links Below


Master (2021) Tamil | Dolby Atmos | IMDb (7.6/10)

~ For Quality Lovers ~








Dolby Atmos Audio taken from SimplySouth 4K WEB-DL

Special Thanks to Skull&AVK for Syncing this Audio

Source Information

Code:

Release:

Master.2021.Tamil.1080p.AMZN.WEB-DL.DD+5.1.H.264-Telly (12.4 GB) [Video+Subtitle]
Master.(2021).4K.Tamil.SS.WEB-DL.AVC.DDP.5.1.Atmos.ESub-DusIcTv (8.98 GB) [DDP.Atmos.Audio]

Media Information

Code:

General
Complete name : Master (2021) Tamil (1080p WEBRip x265 10bit Q22 DDP Atmos) – [Musafirboy].mkv

Format : Matroska

Format version : Version 4

File size : 7.22 GiB

Duration : 2 h 57 min

Overall bit rate : 5 819 kb/s

Encoded date : UTC 2021-02-01 15:40:58

Video
Format : HEVC

Format/Info : High Efficiency Video Coding

Format profile : Main [email protected]@High

Codec ID : V_MPEGH/ISO/HEVC

Duration : 2 h 57 min

Bit rate : 5 369 kb/s

Width : 1 920 pixels

Height : 816 pixels

Display aspect ratio : 2.35:1

Frame rate mode : Constant

Frame rate : 24.000 FPS

Color space : YUV

Chroma subsampling : 4:2:0

Bit depth : 10 bits
Bits/(Pixel*Frame) : 0.143

Stream size : 6.66 GiB (92%)

Writing library : x265 3.2+9-971180b100f8:[Windows][GCC 9.2.0][64 bit] 10bit

Encoding settings : cpuid=1111039 / frame-threads=4 / numa-pools=16 / wpp / no-pmode / no-pme / no-psnr / no-ssim / log-level=2 / input-csp=1 / input-res=1920×816 / interlace=0 / total-frames=255706 / level-idc=50 / high-tier=1 / uhd-bd=0 / ref=4 / no-allow-non-conformance / no-repeat-headers / annexb / no-aud / no-hrd / info / hash=0 / no-temporal-layers / open-gop / min-keyint=24 / keyint=250 / gop-lookahead=0 / bframes=4 / b-adapt=2 / b-pyramid / bframe-bias=0 / rc-lookahead=25 / lookahead-slices=4 / scenecut=40 / radl=0 / no-splice / no-intra-refresh / ctu=64 / min-cu-size=8 / rect / no-amp / max-tu-size=32 / tu-inter-depth=1 / tu-intra-depth=1 / limit-tu=0 / rdoq-level=2 / dynamic-rd=0.00 / no-ssim-rd / signhide / no-tskip / nr-intra=0 / nr-inter=0 / no-constrained-intra / strong-intra-smoothing / max-merge=3 / limit-refs=3 / limit-modes / me=3 / subme=3 / merange=57 / temporal-mvp / no-frame-dup / no-hme / weightp / no-weightb / no-analyze-src-pics / deblock=0:0 / sao / no-sao-non-deblock / rd=4 / selective-sao=4 / no-early-skip / rskip / no-fast-intra / no-tskip-fast / no-cu-lossless / no-b-intra / no-splitrd-skip / rdpenalty=0 / psy-rd=2.00 / psy-rdoq=1.00 / no-rd-refine / no-lossless / cbqpoffs=0 / crqpoffs=0 / rc=crf / crf=22.0 / qcomp=0.60 / qpstep=4 / stats-write=0 / stats-read=0 / vbv-maxrate=100000 / vbv-bufsize=100000 / vbv-init=0.9 / crf-max=0.0 / crf-min=0.0 / ipratio=1.40 / pbratio=1.30 / aq-mode=3 / aq-strength=0.40 / cutree / zone-count=0 / no-strict-cbr / qg-size=32 / no-rc-grain / qpmax=69 / qpmin=0 / no-const-vbv / sar=0 / overscan=0 / videoformat=5 / range=0 / colorprim=1 / transfer=1 / colormatrix=1 / chromaloc=0 / display-window=0 / cll=0,0 / min-luma=0 / max-luma=1023 / log2-max-poc-lsb=8 / vui-timing-info / vui-hrd-info / slices=1 / no-opt-qp-pps / no-opt-ref-list-length-pps / no-multi-pass-opt-rps / scenecut-bias=0.05 / no-opt-cu-delta-qp / no-aq-motion / no-hdr / no-hdr-opt / no-dhdr10-opt / no-idr-recovery-sei / analysis-reuse-level=5 / scale-factor=0 / refine-intra=0 / refine-inter=0 / refine-mv=1 / refine-ctu-distortion=0 / no-limit-sao / ctu-info=0 / no-lowpass-dct / refine-analysis-type=0 / copy-pic=1 / max-ausize-factor=1.0 / no-dynamic-refine / no-single-sei / no-hevc-aq / no-svt / no-field / qp-adaptation-range=1.00

Color range : Limited

Color primaries : BT.709

Transfer characteristics : BT.709

Matrix coefficients : BT.709

Audio
Format : E-AC-3 JOC

Format/Info : Enhanced AC-3 with Joint Object Coding

Commercial name : Dolby Digital Plus with Dolby Atmos
Codec ID : A_EAC3

Duration : 2 h 57 min

Bit rate mode : Constant

Bit rate : 448 kb/s

Channel(s) : 6 channels

Channel layout : L R C LFE Ls Rs

Sampling rate : 48.0 kHz

Frame rate : 31.250 FPS (1536 SPF)

Compression mode : Lossy

Delay relative to video : 2 s 955 ms

Stream size : 569 MiB (8%)

Title : DDP Atmos

Language : Tamil

Complexity index : 16

Number of dynamic objects : 15

Bed channel count : 1 channel

Bed channel configuration : LFE

Subtitle
Format : UTF-8

Codec ID : S_TEXT/UTF8

Codec ID/Info : UTF-8 Plain Text

Duration : 2 h 55 min

Bit rate : 72 b/s

Count of elements : 2799

Stream size : 93.4 KiB (0%)

Language : English

Master (2021) Tamil (1080p HQDownload Torrent Magnet

#Master #Tamil #1080p