Master.2021.Tamil.1080p.AMZN. Full Torrent Magnet Download

Download Torrent Master.2021.Tamil.1080p.AMZN. Movie Full in HD Result. Movie Master.2021.Tamil.1080p.AMZN. Torrent Download full. Movie Master.2021.Tamil.1080p.AMZN. torrent Magnet Download Full. Master.2021.Tamil.1080p.AMZN. Full Movie Torrent Download And Magnet Download For your PC And Mobiles. Latest Movie Master.2021.Tamil.1080p.AMZN. Download Link In Bottom.

Torrent And Magnet Links Below


[center]General

Unique ID : 311201404362522192588390906996740988801 (0xEA1F35D8D2D190F27E8C208474A61F81)

Complete name : /data/disk6/bonsaihd/files/downloads/Master.2021.Tamil.1080p.AMZN.WEB-DL.DDP5.1.ESub.H.264-Shadow.BonsaiHD/Master.2021.Tamil.1080p.AMZN.WEB-DL.DDP5.1.H.264-KnightKing.mkv

Format : Matroska

Format version : Version 4 / Version 2

File size : 12.3 GiB

Duration : 2h 57mn

Overall bit rate : 9 944 Kbps

Encoded date : UTC 2021-01-28 18:38:02

Writing application : mkvmerge v35.0.0 (‘All The Love In The World’) 64-bit

Writing library : libebml v1.3.9 + libmatroska v1.5.2

Video

ID : 1

Format : AVC

Format/Info : Advanced Video Codec

Format profile : [email protected]
Format settings, CABAC : Yes

Format settings, ReFrames : 4 frames

Codec ID : V_MPEG4/ISO/AVC

Duration : 2h 57mn

Bit rate mode : Constant

Bit rate : 9 302 Kbps

Nominal bit rate : 10 000 Kbps

Width : 1 920 pixels

Height : 816 pixels

Display aspect ratio : 2.35:1

Frame rate mode : Constant

Frame rate : 24.000 fps

Color space : YUV

Chroma subsampling : 4:2:0

Bit depth : 8 bits

Scan type : Progressive

Bits/(Pixel*Frame) : 0.247

Stream size : 11.5 GiB (94%)

Default : Yes

Forced : No

Color range : Limited

Color primaries : BT.709

Transfer characteristics : BT.709

Matrix coefficients : BT.709

Audio

ID : 2

Format : E-AC-3

Format/Info : Audio Coding 3

Format settings, Endianness : Big

Codec ID : A_EAC3

Duration : 2h 57mn

Bit rate mode : Constant

Bit rate : 640 Kbps

Channel(s) : 6 channels

Channel positions : Front: L C R, Side: L R, LFE

Sampling rate : 48.0 KHz

Frame rate : 187.500 fps (256 spf)

Compression mode : Lossy

Stream size : 813 MiB (6%)

Language : Tamil

Default : Yes

Forced : No

Text

ID : 3

Format : UTF-8

Codec ID : S_TEXT/UTF8

Codec ID/Info : UTF-8 Plain Text

Duration : 2h 55mn

Bit rate : 72 bps

Count of elements : 2799

Stream size : 93.4 KiB (0%)

Language : English

Default : Yes

Forced : No

Master.2021.Tamil.1080p.AMZN.Download Torrent Magnet

#Master2021Tamil1080pAMZN