Master.2021.Malayalam.1080p.A Full Torrent Magnet Download

Download Torrent Master.2021.Malayalam.1080p.A Movie Full in HD Result. Movie Master.2021.Malayalam.1080p.A Torrent Download full. Movie Master.2021.Malayalam.1080p.A torrent Magnet Download Full. Master.2021.Malayalam.1080p.A Full Movie Torrent Download And Magnet Download For your PC And Mobiles. Latest Movie Master.2021.Malayalam.1080p.A Download Link In Bottom.

Torrent And Magnet Links Below


[center]General

Unique ID : 135360886213981336458007564508546974544 (0x65D58EF3AF39C2D22A401E7F8CBFC350)

Complete name : /data/disk6/bonsaihd/files/downloads/Master.2021.Malayalam.1080p.AMZN.WEB-DL.DD+5.1.H.264-Shadow.BonsaiHD/Master.2021.Malayalam.1080p.AMZN.WEB-DL.DD+5.1.H.264-Telly.mkv

Format : Matroska

Format version : Version 4 / Version 2

File size : 12.8 GiB

Duration : 2h 57mn

Overall bit rate : 10.3 Mbps

Movie name : Telly

Encoded date : UTC 2021-01-28 19:03:02

Writing application : mkvmerge v52.0.0 (‘Secret For The Mad’) 64-bit

Writing library : libebml v1.4.1 + libmatroska v1.6.2

Video

ID : 1

Format : AVC

Format/Info : Advanced Video Codec

Format profile : [email protected]
Format settings, CABAC : Yes

Format settings, ReFrames : 4 frames

Codec ID : V_MPEG4/ISO/AVC

Duration : 2h 57mn

Bit rate : 9 644 Kbps

Width : 1 920 pixels

Height : 800 pixels

Display aspect ratio : 2.40:1

Frame rate mode : Constant

Frame rate : 24.000 fps

Color space : YUV

Chroma subsampling : 4:2:0

Bit depth : 8 bits

Scan type : Progressive

Bits/(Pixel*Frame) : 0.262

Stream size : 12.0 GiB (94%)

Default : Yes

Forced : No

Color range : Limited

Color primaries : BT.709

Transfer characteristics : BT.709

Matrix coefficients : BT.709

Audio

ID : 2

Format : E-AC-3

Format/Info : Audio Coding 3

Format settings, Endianness : Big

Codec ID : A_EAC3

Duration : 2h 57mn

Bit rate mode : Constant

Bit rate : 640 Kbps

Channel(s) : 6 channels

Channel positions : Front: L C R, Side: L R, LFE

Sampling rate : 48.0 KHz

Frame rate : 187.500 fps (256 spf)

Compression mode : Lossy

Stream size : 813 MiB (6%)

Title : Malayalam

Language : Malayalam

Default : No

Forced : No

Text

ID : 3

Format : UTF-8

Codec ID : S_TEXT/UTF8

Codec ID/Info : UTF-8 Plain Text

Duration : 2h 52mn

Bit rate : 63 bps

Count of elements : 2494

Stream size : 80.1 KiB (0%)

Title : English

Language : English

Default : No

Forced : No

Menu

00:00:00.000 : en:Studio Logo

00:00:22.000 : en:Health Advisory

00:00:24.000 : en:Disclaimer

00:00:28.000 : en:Acknowledgement

00:00:49.000 : en:Studio Logo

00:02:03.000 : en:Studio Logo

00:02:11.000 : en:Scene 7

00:03:28.000 : en:Scene 8

00:04:55.000 : en:Scene 9

00:06:05.000 : en:Scene 10

00:08:15.000 : en:Scene 11

00:13:29.000 : en:Scene 12

00:14:53.000 : en:Opening Credits

00:15:18.000 : en:Scene 14

00:18:03.000 : en:Scene 15

00:24:16.000 : en:Scene 16

00:26:12.000 : en:Scene 17

00:28:06.000 : en:Scene 18

00:32:44.000 : en:Scene 19

00:35:56.000 : en:Scene 20

00:37:38.000 : en:Scene 21

00:41:35.000 : en:Scene 22

00:44:57.000 : en:Scene 23

00:49:06.000 : en:Scene 24

00:52:23.000 : en:Scene 25

00:53:16.000 : en:Scene 26

00:54:44.000 : en:Scene 27

00:57:05.000 : en:Scene 28

00:58:34.000 : en:Scene 29

01:03:35.000 : en:Scene 30

01:09:35.000 : en:Scene 31

01:16:31.000 : en:Scene 32

01:18:01.000 : en:Scene 33

01:26:32.000 : en:Scene 34

01:32:58.000 : en:Scene 35

01:36:36.000 : en:Scene 36

01:43:18.000 : en:Scene 37

01:47:01.000 : en:Scene 38

01:50:11.000 : en:Scene 39

01:57:22.000 : en:Scene 40

02:03:20.000 : en:Scene 41

02:10:07.000 : en:Scene 42

02:16:17.000 : en:Scene 43

02:22:50.000 : en:Scene 44

02:24:34.000 : en:Scene 45

02:32:13.000 : en:Scene 46

02:36:58.000 : en:Scene 47

02:41:31.000 : en:Scene 48

02:50:53.000 : en:Scene 49

02:54:56.000 : en:End Credits

Master.2021.Malayalam.1080p.ADownload Torrent Magnet

#Master2021Malayalam1080pA