Master 2021 Hindi-(Cleaned-V2 Full Torrent Magnet Download

Download Torrent Master 2021 Hindi-(Cleaned-V2 Movie Full in HD Result. Movie Master 2021 Hindi-(Cleaned-V2 Torrent Download full. Movie Master 2021 Hindi-(Cleaned-V2 torrent Magnet Download Full. Master 2021 Hindi-(Cleaned-V2 Full Movie Torrent Download And Magnet Download For your PC And Mobiles. Latest Movie Master 2021 Hindi-(Cleaned-V2 Download Link In Bottom.

Torrent And Magnet Links Below

Master 2021 Hindi-(Cleaned-V2) + Tamil 1080p AMZN WEB-DL DDP5.1 H264 – SunGeorge

Quote:

Master 2021 Hindi-(Cleaned-V2) + Tamil 1080p AMZN WEB-DL DDP5.1 H264 – SunGeorge

[/url]




Code:

General

Unique ID : 45194015151609880407591990669995507731 (0x22000CFB3FC7798B105C0583BA698013)

Complete name : D:Master.2021.Hindi-(Cleaned-V2).Tamil.1080p.AMZN.WEB-DL.DDP5.1.H264Master.2021.Hindi-(Cleaned-V2).Tamil.1080p.AMZN.WEB-DL.DDP5.1.H264.mkv

Format : Matroska

Format version : Version 4

File size : 12.5 GiB

Duration : 2 h 57 min

Overall bit rate : 10.1 Mb/s

Movie name : MovieAIO.club

Encoded date : UTC 2021-01-29 04:33:00

Writing application : mkvmerge v51.0.0 (‘I Wish’) 64-bit

Writing library : libebml v1.4.0 + libmatroska v1.6.2

Video

ID : 1

Format : AVC

Format/Info : Advanced Video Codec

Format profile : [email protected]
Format settings : CABAC / 4 Ref Frames

Format settings, CABAC : Yes

Format settings, Reference frames : 4 frames

Codec ID : V_MPEG4/ISO/AVC

Duration : 2 h 57 min

Bit rate mode : Constant

Bit rate : 9 351 kb/s

Nominal bit rate : 10 000 kb/s

Width : 1 920 pixels

Height : 816 pixels

Display aspect ratio : 2.35:1

Frame rate mode : Constant

Frame rate : 24.000 FPS

Color space : YUV

Chroma subsampling : 4:2:0

Bit depth : 8 bits

Scan type : Progressive

Bits/(Pixel*Frame) : 0.249

Stream size : 11.6 GiB (93%)

Title : MovieAIO.club

Default : Yes

Forced : No

Color range : Limited

Color primaries : BT.709

Transfer characteristics : BT.709

Matrix coefficients : BT.709

Audio #1

ID : 2

Format : AAC LC SBR

Format/Info : Advanced Audio Codec Low Complexity with Spectral Band Replication

Commercial name : HE-AAC

Format settings : NBC

Codec ID : A_AAC-5

Duration : 2 h 57 min

Bit rate : 96.0 kb/s

Channel(s) : 2 channels

Channel layout : L R

Sampling rate : 48.0 kHz

Frame rate : 23.438 FPS (2048 SPF)

Compression mode : Lossy

Stream size : 122 MiB (1%)

Title : Hindi (Cleaned V2)

Language : Hindi

Default : Yes

Forced : No

Audio #2

ID : 3

Format : E-AC-3

Format/Info : Enhanced AC-3

Commercial name : Dolby Digital Plus

Codec ID : A_EAC3

Duration : 2 h 57 min

Bit rate mode : Constant

Bit rate : 640 kb/s

Channel(s) : 6 channels

Channel layout : L R C LFE Ls Rs

Sampling rate : 48.0 kHz

Frame rate : 31.250 FPS (1536 SPF)

Compression mode : Lossy

Stream size : 813 MiB (6%)

Title : Tamil

Language : Tamil

Service kind : Complete Main

Default : No

Forced : No

Text

ID : 4

Format : UTF-8

Codec ID : S_TEXT/UTF8

Codec ID/Info : UTF-8 Plain Text

Duration : 2 h 55 min

Bit rate : 72 b/s

Count of elements : 2799

Stream size : 93.4 KiB (0%)

Title : English

Language : English

Default : No

Forced : No

Menu

00:00:00.000 : en:Film Certification

00:00:05.000 : en:Health Advisory

00:00:25.000 : en:Disclaimer

00:00:29.000 : en:Acknowledgement

00:00:50.000 : en:Studio Logo

00:02:11.000 : en:Scene 6

00:03:29.000 : en:Scene 7

00:04:56.000 : en:Scene 8

00:06:06.000 : en:Scene 9

00:08:16.000 : en:Scene 10

00:13:30.000 : en:Scene 11

00:14:54.000 : en:Opening Credits

00:15:19.000 : en:Scene 13

00:18:04.000 : en:Scene 14

00:24:17.000 : en:Scene 15

00:26:13.000 : en:Scene 16

00:28:07.000 : en:Scene 17

00:32:45.000 : en:Scene 18

00:35:57.000 : en:Scene 19

00:37:39.000 : en:Scene 20

00:41:36.000 : en:Scene 21

00:44:58.000 : en:Scene 22

00:49:07.000 : en:Scene 23

00:52:24.000 : en:Scene 24

00:53:17.000 : en:Scene 25

00:54:45.000 : en:Scene 26

00:57:06.000 : en:Scene 27

00:58:35.000 : en:Scene 28

01:03:36.000 : en:Scene 29

01:09:36.000 : en:Scene 30

01:16:31.000 : en:Scene 31

01:18:01.000 : en:Scene 32

01:26:33.000 : en:Scene 33

01:32:59.000 : en:Scene 34

01:36:37.000 : en:Scene 35
01:43:19.000 : en:Scene 36

01:47:02.000 : en:Scene 37

01:50:12.000 : en:Scene 38

01:57:23.000 : en:Scene 39

02:03:21.000 : en:Scene 40

02:10:07.000 : en:Scene 41

02:16:17.000 : en:Scene 42

02:22:50.000 : en:Scene 43

02:24:33.000 : en:Scene 44

02:32:14.000 : en:Scene 45

02:36:59.000 : en:Scene 46

02:41:33.000 : en:Scene 47

02:50:55.000 : en:Scene 48

02:54:58.000 : en:End Credits

Master 2021 Hindi-(Cleaned-V2Download Torrent Magnet

#Master #HindiCleanedV2